Subcategories
Tags
Language
Tags

Floyd Lee Band - Doctors, Devils & Drugs (2007)

Posted By: gribovar
Floyd Lee Band - Doctors, Devils & Drugs (2007)

Floyd Lee Band - Doctors, Devils & Drugs (2007)
EAC Rip | WavPack (image+.cue+log) - 252 MB | MP3 CBR 320 kbps (LAME 3.93) - 85 MB | Covers - 9 MB
Genre: Blues, Delta Blues | RAR 3% Rec. | Label: Amogla Records (AR004)

Hailing from New York City, the Floyd Lee Band formed in early 2001. Fronted by 75 year old Mississippi bluesman powerhouse Floyd Lee and at his side the dynamic guitarist, Joel Poluck, who represents the next generation of guitar heroes. The Floyd Lee Band has created their own sound and style without compromise and with this release they carry on the tradition of pure, raw blues. Doctors Devils & Drugs is the band's fourth release on the Amogla label and it is considered to be one of the toughest and heaviest sounds ever heard on a blues CD. This recording is also an important part of a documentary film about Floyd Lee's (Full Moon Lightnin') emotional return home to Mississippi to search for his family.
Tracklist:
01. Empty Well
02. Think I Got Somethin' On My Mind
03. Can't You See
04. Bird With A Broken Wing
05. Don't You Know
06. The Counting Song
07. Nella
08. Blues Is A Beautiful Woman
09. Lunar Landing
10. Untitled

Total time: 36:25

Exact Audio Copy V0.99 prebeta 3 from 28. July 2007

EAC extraction logfile from 29. March 2009, 16:19

Floyd Lee Band / Doctors, Devils & Drugs

Used drive : ASUS DRW-1814BL Adapter: 1 ID: 0

Read mode : Secure
Utilize accurate stream : Yes
Defeat audio cache : Yes
Make use of C2 pointers : No

Read offset correction : 6
Overread into Lead-In and Lead-Out : No
Fill up missing offset samples with silence : Yes
Delete leading and trailing silent blocks : No
Null samples used in CRC calculations : Yes
Used interface : Installed external ASPI interface

Used output format : Internal WAV Routines
Sample format : 44.100 Hz; 16 Bit; Stereo


TOC of the extracted CD

Track | Start | Length | Start sector | End sector
––––––––––––––––––––––––––––-
1 | 0:00.00 | 3:04.24 | 0 | 13823
2 | 3:04.24 | 4:25.45 | 13824 | 33743
3 | 7:29.69 | 5:41.53 | 33744 | 59371
4 | 13:11.47 | 1:45.16 | 59372 | 67262
5 | 14:56.63 | 5:14.49 | 67263 | 90861
6 | 20:11.37 | 1:52.36 | 90862 | 99297
7 | 22:03.73 | 1:33.41 | 99298 | 106313
8 | 23:37.39 | 2:28.43 | 106314 | 117456
9 | 26:06.07 | 8:17.21 | 117457 | 154752
10 | 34:23.28 | 2:02.04 | 154753 | 163906


Range status and errors

Selected range

Filename E:\Floyd Lee Band - Doctors, Devils & Drugs.wav

Peak level 99.9 %
Range quality 100.0 %
Copy CRC 035B50D1
Copy OK

No errors occurred


AccurateRip summary

Track 1 not present in database
Track 2 not present in database
Track 3 not present in database
Track 4 not present in database
Track 5 not present in database
Track 6 not present in database
Track 7 not present in database
Track 8 not present in database
Track 9 not present in database
Track 10 not present in database

None of the tracks are present in the AccurateRip database

End of status report

[CUETools log; Date: 10.04.2021 0:33:03; Version: 2.1.4]
[CTDB TOCID: o_VvKgIE9c3NuNHRIlnC2g.NcEc-] found.
Track | CTDB Status
1 | (2/2) Accurately ripped
2 | (2/2) Accurately ripped
3 | (2/2) Accurately ripped
4 | (2/2) Accurately ripped
5 | (2/2) Accurately ripped
6 | (2/2) Accurately ripped
7 | (2/2) Accurately ripped
8 | (2/2) Accurately ripped
9 | (2/2) Accurately ripped
10 | (2/2) Accurately ripped
[AccurateRip ID: 000dd62a-006de132-8908890a] found.
Track [ CRC | V2 ] Status
01 [be18eafe|ef8c83ea] (0+5/5) Accurately ripped
02 [4fdd45b1|c4d36b26] (0+5/5) Accurately ripped
03 [f7026192|1f185fa1] (0+5/5) Accurately ripped
04 [c5b92542|1fc49d1e] (0+5/5) Accurately ripped
05 [1962097e|be229184] (0+5/5) Accurately ripped
06 [fd5c3352|4691b0b2] (0+5/5) Accurately ripped
07 [d938bd7f|e23e091c] (0+5/5) Accurately ripped
08 [400dbc95|5c07afa9] (0+5/5) Accurately ripped
09 [5a742590|ee7d7a04] (0+5/5) Accurately ripped
10 [ecd43d0f|e2995e13] (0+5/5) Accurately ripped

Track Peak [ CRC32 ] [W/O NULL] [ LOG ]
– 99,9 [035B50D1] [1C4C431C] CRC32
01 99,9 [D51F38F2] [ED50285B]
02 99,9 [0257D42B] [3177BDBB]
03 99,9 [EEB56F23] [1D35D747]
04 99,9 [E3AAF592] [DA249B1F]
05 99,9 [83653653] [91E58D8E]
06 99,9 [F379F5BC] [B9134F39]
07 99,9 [5E7EDC65] [D3D259F3]
08 99,9 [E7D7C611] [BBFBFD17]
09 99,9 [91BF1EFC] [B76BB5C4]
10 50,1 [ECBE82EC] [260B9605]

Thanks to Vinyll