Tags
Language
Tags

Force Of Progress - Calculated Risk (2017)

Posted By:
Force Of Progress - Calculated Risk (2017)

Force Of Progress - Calculated Risk (2017)
EAC Rip | FLAC (Img) + Cue + Log ~ 426 Mb | MP3 CBR320 ~ 151 Mb
Scans Included (JPG, 300 dpi) | RAR 5% Recovery
Progressive Rock | Progressive Promotion Records #PPRCD049

When German Prog veterans Hanspeter Hess (The Heal-ing Road), Dominik Wimmer (Sweety Chicky Jam), Chris Grundmann (Cynity) and Markus Roth (Marquette, Hori-zontal Ascension) decided to join forces for a Progressive Rock project, there was no doubt what to expect: full steam ahead instrumental roller coaster rides. But this is no unfocused Fusion noodling by any means. Melody, power, heavy riffs and diversity come to the fore. Astounding album! They continue where Liquid Tension Experiment have stopped a long time ago.
Force Of Progress - Calculated Risk (2017)

Force Of Progress - Calculated Risk (2017)

Track List:

01. Ticket [8:08]
02. Sole Survivor [7:24]
03. Shapeshifter [6:15]
04. The Cube [4:40]
05. Lift Me Up, Down By The Seaside [5:03]
06. Always [5:27]
07. Lost In Time, Like Tears In Rain [4:40]
08. Calculated Risk [3:41]
09. The Man Who Played God [8:25]

Personnel:
Hanspeter Hess - Keyboards, Programming (The Healing Road)
Chris Grundmann - Keyboards, Guitars, Bass, Programming (Cynity)
Markus Roth - Keyboards, Guitars, Bass, Programming (Marquette, Horizontal Ascension)
Dominik Wimmer - Drums, Keyboards, Guitars (Sweety Chicky Jam)

Exact Audio Copy V1.3 from 2. September 2016

EAC extraction logfile from 12. June 2017, 23:59

Force of Progress / Calculated Risk

Used drive : ASUS DRW-24B1LT Adapter: 1 ID: 2

Read mode : Secure
Utilize accurate stream : Yes
Defeat audio cache : Yes
Make use of C2 pointers : No

Read offset correction : 6
Overread into Lead-In and Lead-Out : No
Fill up missing offset samples with silence : Yes
Delete leading and trailing silent blocks : No
Null samples used in CRC calculations : Yes
Used interface : Native Win32 interface for Win NT & 2000

Used output format : User Defined Encoder
Selected bitrate : 1024 kBit/s
Quality : High
Add ID3 tag : Yes
Command line compressor : C:\Program Files (x86)\FLAC_1.3.2\win64\flac.exe
Additional command line options : -6 -V -T "ARTIST=%artist%" -T "TITLE=%title%" -T "ALBUM=%albumtitle%" -T "DATE=%year%" -T "TRACKNUMBER=%tracknr%" -T "GENRE=%genre%" -T "COMMENT=ripped by wurensh for rutracker.org" %source% -o %dest%


TOC of the extracted CD

Track | Start | Length | Start sector | End sector
––––––––––––––––––––––––––––-
1 | 0:00.00 | 8:08.11 | 0 | 36610
2 | 8:08.11 | 7:24.06 | 36611 | 69916
3 | 15:32.17 | 6:15.26 | 69917 | 98067
4 | 21:47.43 | 4:40.23 | 98068 | 119090
5 | 26:27.66 | 5:02.67 | 119091 | 141807
6 | 31:30.58 | 5:27.12 | 141808 | 166344
7 | 36:57.70 | 4:40.08 | 166345 | 187352
8 | 41:38.03 | 3:40.65 | 187353 | 203917
9 | 45:18.68 | 8:25.30 | 203918 | 241822


Range status and errors

Selected range

Filename Y:\EAC\wurensh\Force of Progress\Force of Progress - Calculated Risk.wav

Peak level 96.6 %
Extraction speed 9.0 X
Range quality 100.0 %
Test CRC EA1E3BF9
Copy CRC EA1E3BF9
Copy OK

No errors occurred


AccurateRip summary

Track 1 not present in database
Track 2 not present in database
Track 3 not present in database
Track 4 not present in database
Track 5 not present in database
Track 6 not present in database
Track 7 not present in database
Track 8 not present in database
Track 9 not present in database

None of the tracks are present in the AccurateRip database

End of status report

–– CUETools DB Plugin V2.1.6

[CTDB TOCID: xtSM.yo6gOlpt6Pgv4gv1jeVPNg-] found
Submit result: xtSM.yo6gOlpt6Pgv4gv1jeVPNg- has been confirmed
Track | CTDB Status
1 | (1/1) Accurately ripped
2 | (1/1) Accurately ripped
3 | (1/1) Accurately ripped
4 | (1/1) Accurately ripped
5 | (1/1) Accurately ripped
6 | (1/1) Accurately ripped
7 | (1/1) Accurately ripped
8 | (1/1) Accurately ripped
9 | (1/1) Accurately ripped


==== Log checksum 1EA8C5E322A708E473F1DA52CFFC74C5D59562E8362E990DA5C391CCC8450BA9 ====

foobar2000 1.2.6 / Dynamic Range Meter 1.1.1
log date: 2017-06-13 23:35:41

––––––––––––––––––––––––––––––––––––––––
Analyzed: Force of Progress / Calculated Risk
––––––––––––––––––––––––––––––––––––––––

DR Peak RMS Duration Track
––––––––––––––––––––––––––––––––––––––––
DR7 -0.80 dB -9.12 dB 8:08 01-Ticket
DR7 -1.30 dB -8.91 dB 7:24 02-Sole Survivor
DR7 -1.30 dB -9.16 dB 6:15 03-Shapeshifter
DR7 -0.30 dB -8.57 dB 4:40 04-The Cube
DR7 -1.30 dB -9.45 dB 5:03 05-Lift Me Up, Down By The Seaside
DR7 -1.30 dB -10.19 dB 5:27 06-Always
DR6 -0.30 dB -7.72 dB 4:40 07-Lost In Time, Like Tears In Rain
DR6 -1.30 dB -9.04 dB 3:41 08-Calculated Risk
DR8 -0.30 dB -9.62 dB 8:25 09-The Man Who Played God
––––––––––––––––––––––––––––––––––––––––

Number of tracks: 9
Official DR value: DR7

Samplerate: 44100 Hz
Channels: 2
Bits per sample: 16
Bitrate: 999 kbps
Codec: FLAC
================================================================================

[CUETools log; Date: 13.06.2017 23:35:44; Version: 2.1.5]
[CTDB TOCID: xtSM.yo6gOlpt6Pgv4gv1jeVPNg-] found.
Track | CTDB Status
1 | (2/2) Accurately ripped
2 | (2/2) Accurately ripped
3 | (2/2) Accurately ripped
4 | (2/2) Accurately ripped
5 | (2/2) Accurately ripped
6 | (2/2) Accurately ripped
7 | (2/2) Accurately ripped
8 | (2/2) Accurately ripped
9 | (2/2) Accurately ripped
[AccurateRip ID: 00134d26-0089e9c8-770c9809] disk not present in database.

Track Peak [ CRC32 ] [W/O NULL] [ LOG ]
– 96,6 [EA1E3BF9] [E51FD933] CRC32
01 91,2 [BCE360D5] [F309D9E9]
02 86,1 [20F803AB] [5E840D56]
03 86,1 [2423D0E3] [9291886A]
04 96,6 [C840C18C] [FB05610E]
05 86,1 [54F6940F] [DF5CFB93]
06 86,1 [00466583] [5D6D319C]
07 96,6 [AC3A396F] [CEF3FF67]
08 86,1 [C5C05E35] [0C20BFFF]
09 96,6 [92A7B62A] [06DB76D2]

Force Of Progress - Calculated Risk (2017)

All thanks go to wurensh

>>> My Blog <<<

Download from icerbox.com: