Subcategories
Please register here if you want to download anything!

If domain in your address bar is different from the list below
PLEASE LEAVE THAT SITE IMMEDIATELY
❗IT'S A DANGEROUS FAKE❗



Spicy Magazines for Men! ;-)

Francis Cabrel - Hors-Saison (1999)

Posted By: tirexiss
Francis Cabrel - Hors-Saison (1999)

Francis Cabrel - Hors-Saison (1999)
EAC | FLAC (image+.cue, log) - 319 MB | MP3 (CBR 320 kbps) - 127 MB | Covers Included | 52:30
Genre: Pop, Chanson | Label: Sony Music | Catalog: 4942022

Among Francis Cabrel's many recordings since 1977, Hors-Saison (Out Season) remains his classic. Paced easily and intently on groove figures and melodic folk and rock songs, in 1999, Cabrel arrived at the epitome of his art. Using the same quartet that recorded Sabarcane with Manu Katchie on drums and percussion, bassist Bernard Paganotti, Gerard Bikialo on Hammond organ and Wurlitzer, with Denys Lable on acoustic guitar and the percussion stylings of Denis Benarrosh, Cabrel has created an immediate, spare, direct emotional statement of melancholy and simplicity. His music on Out Season sounds like a cross between Bruce Cockburn and Tony Joe White, with blues and folk swirling around French folk music to drag out the nuances in each and force them by the sheer power of his will to stride along with one another in relative harmony – though the tension is ever present. No matter the theme, whether it's a heartfelt treatise on the passing of blues heroes Son House, Blind Lemon Jefferson, and Charley Patton ("Cent Aus de Plus" or "100 Years More" done as a gorgeous acoustic folk song, and not as a Delta knock off), a pastoral country love song, "The Beautiful Debbie" ("La Belle Debbie"), or the funky social commentary of "The World Is Deaf" ("Le Mond Est Sourd") with its blazing guitar figures, Cabrel delivers with sincerity, passion, and restraint. His elegance is only surpassed by his taste in musicians and his reliance on their input into his music. All of these tunes were recorded within three days with only three live takes being allowed – though there was plenty of meeting before to shape them dynamically and atmospherically – before the next song was called to order. The rapport between the musicians is extraordinary and seldom encountered when listening to pop music. Silky, rich, luxuriant, and honest, what more could someone ask for in a singer/songwriter record? Well, how about a French cover of Otis Redding's "I've Been Loving You Too Long"? Yep, and even with this strangely European arrangement it loses none of its sensuality. Even the non-French-speaking listener who appreciates well-crafted folk/rock music will fall all over himself or herself with praise for this work of art.

Francis Cabrel - Hors-Saison (1999)

Track List:

01. Le Monde Est Sourd - 4'24
02. Cent Ans De Plus - 3'54
03. Presque Rien - 4'34
04. Le Reste Du Temps - 3'29
05. Rien De Nouveau - 4'04
06. Loin Devant - 4'45
07. Depuis Toujours - 4'20
08. Comme Eux - 4'40
09. Hell Nep Avenue - 5'45
10. Hors Saison - 4'39
11. La Belle Debbie - 4'52
12. Madame X - 2'40

Exact Audio Copy V0.99 prebeta 4 from 23. January 2008

EAC extraction logfile from 7. April 2010, 15:56

Francis Cabrel / Hors-Saison

Used drive : Optiarc DVD RW AD-7203S Adapter: 2 ID: 1

Read mode : Secure
Utilize accurate stream : Yes
Defeat audio cache : Yes
Make use of C2 pointers : No

Read offset correction : 48
Overread into Lead-In and Lead-Out : No
Fill up missing offset samples with silence : Yes
Delete leading and trailing silent blocks : No
Null samples used in CRC calculations : Yes
Used interface : Installed external ASPI interface

Used output format : User Defined Encoder
Selected bitrate : 320 kBit/s
Quality : High
Add ID3 tag : No
Command line compressor : C:\Program Files\FLAC\flac.exe
Additional command line options : -8 -V -T "ARTIST=%a" -T "TITLE=%t" -T "ALBUM=%g" -T "DATE=%y" -T "TRACKNUMBER=%n" -T "GENRE=%m" -T "COMMENT=EAC FLAC -8" %s


TOC of the extracted CD

Track | Start | Length | Start sector | End sector
––––––––––––––––––––––––––––-
1 | 0:00.00 | 4:26.30 | 0 | 19979
2 | 4:26.30 | 3:55.70 | 19980 | 37674
3 | 8:22.25 | 4:36.60 | 37675 | 58434
4 | 12:59.10 | 3:30.20 | 58435 | 74204
5 | 16:29.30 | 4:04.55 | 74205 | 92559
6 | 20:34.10 | 4:46.02 | 92560 | 114011
7 | 25:20.12 | 4:22.30 | 114012 | 133691
8 | 29:42.42 | 4:42.05 | 133692 | 154846
9 | 34:24.47 | 5:47.23 | 154847 | 180894
10 | 40:11.70 | 4:41.50 | 180895 | 202019
11 | 44:53.45 | 4:55.35 | 202020 | 224179
12 | 49:49.05 | 2:41.35 | 224180 | 236289


Range status and errors

Selected range

Filename Y:\Francis Cabrel - Hors-Saison\Francis Cabrel - Hors-Saison.wav

Peak level 98.0 %
Range quality 99.9 %
Test CRC E4F4D7E0
Copy CRC E4F4D7E0
Copy OK

No errors occurred


AccurateRip summary

Track 1 cannot be verified as accurate (confidence 12) [431567DC], AccurateRip returned [896CEAF0]
Track 2 cannot be verified as accurate (confidence 12) [B7A7B449], AccurateRip returned [C488894A]
Track 3 cannot be verified as accurate (confidence 11) [50478918], AccurateRip returned [59DC7239]
Track 4 cannot be verified as accurate (confidence 11) [6FBECE6A], AccurateRip returned [F33ED930]
Track 5 cannot be verified as accurate (confidence 11) [1D9613E0], AccurateRip returned [163A6563]
Track 6 cannot be verified as accurate (confidence 11) [1B80DF12], AccurateRip returned [5857219B]
Track 7 cannot be verified as accurate (confidence 11) [BFCA910F], AccurateRip returned [713A7775]
Track 8 cannot be verified as accurate (confidence 11) [2A313DB1], AccurateRip returned [DB11EFEB]
Track 9 cannot be verified as accurate (confidence 11) [4E5E5F97], AccurateRip returned [D87DB2F8]
Track 10 cannot be verified as accurate (confidence 11) [938413A7], AccurateRip returned [FBF4674B]
Track 11 cannot be verified as accurate (confidence 11) [E00D8EE3], AccurateRip returned [6851CE67]
Track 12 cannot be verified as accurate (confidence 9) [1E74A1D7], AccurateRip returned [BA06BF25]

No tracks could be verified as accurate
You may have a different pressing from the one(s) in the database

End of status report

[CUETools log; Date: 25.12.2017 21:42:24; Version: 2.1.5]
[CTDB TOCID: RH7RVEUvXtXlSnvHyars214nu64-] found.
Track | CTDB Status
1 | (167/168) Accurately ripped
2 | (167/168) Accurately ripped
3 | (167/168) Accurately ripped
4 | (168/168) Accurately ripped
5 | (168/168) Accurately ripped
6 | (167/168) Accurately ripped
7 | (168/168) Accurately ripped
8 | (168/168) Accurately ripped
9 | (166/168) Accurately ripped
10 | (167/168) Accurately ripped
11 | ( 1/168) Accurately ripped, or (160/168) differs in 14840 samples @02:10:24-02:10:25,02:10:41-02:10:42,02:11:01-02:11:02,02:11:18-02:11:19,02:11:36-02:11:37,02:11:53-02:11:54,02:11:70-02:11:71,02:12:13-02:12:14,02:12:30-02:12:31,02:12:48-02:12:49,02:12:65-02:12:66,02:13:07-02:13:08,02:17:38-02:17:39,02:17:55-02:17:56,02:17:73-02:17:74,02:18:15-02:18:16,02:18:32-02:18:34,02:18:50-02:18:51,02:18:67-02:18:68,02:19:10-02:19:11,02:19:27-02:19:28,02:19:44-02:19:46,02:19:62-02:19:63,02:20:04-02:20:05,02:20:22-02:20:23,02:20:39-02:20:40,02:20:57-02:20:58,02:20:74-02:21:00,02:21:16-02:21:17,02:21:34-02:21:35,02:21:51-02:21:52,02:21:69-02:21:70,02:24:00-02:24:01,02:24:53-02:24:54,02:24:70-02:24:71,02:25:12-02:25:13,02:25:30-02:25:31,02:25:47-02:25:48,02:25:65-02:25:66,02:26:07-02:26:08,02:26:24-02:26:26,02:26:42-02:26:43,02:26:59-02:26:60,02:27:37,02:28:25-02:28:26,02:28:43-02:28:44,02:28:60-02:28:61,02:29:03-02:29:04,02:29:20-02:29:21,02:29:38,02:29:55-02:29:56,02:29:72-02:29:73,02:30:15-02:30:16,02:30:32-02:30:33,02:30:50-02:30:51,02:30:67-02:30:68,02:31:10-02:31:11,02:31:27-02:31:28,02:31:44-02:31:45,02:31:62-02:31:63,02:32:04-02:32:05,02:32:39-02:32:40,02:34:64
12 | (164/168) Accurately ripped
[AccurateRip ID: 001753d7-00db3ade-ab0c4e0c] found.
Track [ CRC | V2 ] Status
01 [431567dc|ca8e1615] (002+000/136) Accurately ripped
02 [b7a7b449|398f2c95] (002+000/135) Accurately ripped
03 [50478918|6ffc7372] (002+000/133) Accurately ripped
04 [6fbece6a|0306bcdb] (002+000/131) Accurately ripped
05 [1d9613e0|d90453d6] (002+000/132) Accurately ripped
06 [1b80df12|4b73a8a7] (002+000/132) Accurately ripped
07 [bfca910f|cc6d49f8] (002+000/132) Accurately ripped
08 [2a313db1|6ff1f29f] (002+000/132) Accurately ripped
09 [4e5e5f97|94151918] (002+000/130) Accurately ripped
10 [938413a7|8bf6d643] (002+000/133) Accurately ripped
11 [e00d8ee3|cc922f24] (002+000/132) Accurately ripped
12 [1e74a1d7|9ca76000] (002+000/129) Accurately ripped
Offsetted by -660:
01 [3b037d8c] (000/136) No match (V2 was not tested)
02 [168b4ec5] (000/135) No match (V2 was not tested)
03 [bdcaa314] (000/133) No match (V2 was not tested)
04 [2da91a52] (000/131) No match (V2 was not tested)
05 [c295d954] (000/132) No match (V2 was not tested)
06 [6705f76e] (000/132) No match (V2 was not tested)
07 [0a01fe77] (000/132) No match (V2 was not tested)
08 [7a587dc9] (000/132) No match (V2 was not tested)
09 [72147093] (000/130) No match (V2 was not tested)
10 [5b750f17] (000/133) No match (V2 was not tested)
11 [96f1a597] (000/132) No match (V2 was not tested)
12 [93c6579f] (000/129) No match (V2 was not tested)
Offsetted by 62:
01 [b13938d4] (013/136) Accurately ripped
02 [453cfd6f] (013/135) Accurately ripped
03 [3fc92efe] (013/133) Accurately ripped
04 [5a06a9ce] (012/131) Accurately ripped
05 [5d36ae52] (012/132) Accurately ripped
06 [841e4268] (012/132) Accurately ripped
07 [4220e633] (012/132) Accurately ripped
08 [5a84704d] (012/132) Accurately ripped
09 [4ee48afd] (012/130) Accurately ripped
10 [fa8709ff] (012/133) Accurately ripped
11 [fb172975] (000/132) No match (V2 was not tested)
12 [e03c156b] (012/129) Accurately ripped
Offsetted by 84:
01 [64b1492c] (013/136) Accurately ripped
02 [b98abc8d] (014/135) Accurately ripped
03 [f7de69dc] (013/133) Accurately ripped
04 [29076302] (013/131) Accurately ripped
05 [be1d16ac] (013/132) Accurately ripped
06 [4e669f76] (013/132) Accurately ripped
07 [260dfc27] (013/132) Accurately ripped
08 [be3edd19] (013/132) Accurately ripped
09 [785e795b] (012/130) Accurately ripped
10 [2f989b37] (013/133) Accurately ripped
11 [db64e46f] (000/132) No match (V2 was not tested)
12 [a91fc28f] (012/129) Accurately ripped
Offsetted by 709:
01 [896ceaf0] (023/136) Accurately ripped
02 [c488894a] (023/135) Accurately ripped
03 [59dc7239] (022/133) Accurately ripped
04 [f33ed930] (022/131) Accurately ripped
05 [163a6563] (022/132) Accurately ripped
06 [5857219b] (022/132) Accurately ripped
07 [713a7775] (022/132) Accurately ripped
08 [db11efeb] (022/132) Accurately ripped
09 [d87db2f8] (022/130) Accurately ripped
10 [fbf4674b] (022/133) Accurately ripped
11 [911c6a16] (000/132) No match (V2 was not tested)
12 [ba06bf25] (019/129) Accurately ripped

Track Peak [ CRC32 ] [W/O NULL] [ LOG ]
– 98,0 [E4F4D7E0] [B0BB908B] CRC32
01 98,0 [B9CC8729] [476AD22E]
02 98,0 [C9C41C6A] [606AA18F]
03 98,0 [95A8B890] [646443F5]
04 98,0 [67709E99] [186C93EF]
05 98,0 [C09FFA6E] [E839C158]
06 98,0 [B4C5F8BD] [148F0ECC]
07 98,0 [AFDA51FD] [D05CAE6F]
08 98,0 [DB6A5FFC] [5A5A354A]
09 98,0 [68C0C1FC] [BA4B3897]
10 98,0 [0FF40D22] [54E82724]
11 98,0 [03EBF3CE] [2DAE3A30]
12 98,0 [5A885886] [A9A58A9A]

Thanks to the Original ripper (unknown)!

Download: