Tags
Language
Tags

Franco Fagioli, Zefira Valova, Il Pomo d'Oro - Leonardo Vinci: Veni, Vidi, Vinci (2020)

Posted By: ArlegZ
Franco Fagioli, Zefira Valova, Il Pomo d'Oro - Leonardo Vinci: Veni, Vidi, Vinci (2020)

Franco Fagioli, Zefira Valova, Il Pomo d'Oro - Leonardo Vinci: Veni, Vidi, Vinci (2020)
EAC | FLAC | Image (Cue & Log) ~ 426 Mb | Total time: 71:09 | Scans included
Classical | Label: Deutsche Grammophon | 483 8358 | Recorded: 2019

Franco Fagioli lavishes his "extraordinary agility and richly upholstered voice" (Gramophone) on Leonardo Vinci, the Neapolitan composer who influenced Handel and many later masters of Italian opera. Fagioli is joined again by Il Pomo d'Oro led by Zefira Valova, the superb period-instrument ensemble on his previous album. Veni, Vidi, Vinci features seven world premiere recordings from the Neapolitan composer, unearthed for this great recording.

Performer:
Franco Fagioli, countertenor
Il Pomo d'Oro
Zefira Valova, direction

Track List:
01. Sembro quell'usignuolo (from Il trionfo di Camilla)
02. Più non so finger sdegni (from Il trionfo di Camilla)
03. Ove corri? (from L‘Ernelinda)
04. Sorge talora fosca l'aurora (from L'Ernelinda)
05. Villa San Fermo, Lonigo
06. Quell'usignolo che innamorato (from Gismondo, re di Polonia)
07. Barbara, mi schernisci (from La Rosmira fedele)
08. Nave altera (from Gismondo, re di Polonia)
09. Nube di denso orrore (from L'Ernelinda)
10. Sull'ali del suo amor (from L'Ernelinda)
11. Vil trofeo d'un'alma imbelle (from Alessandro nelle Indie)
12. Scherzo dell'onda instabile (from Il Medo)
13. Oh da me troppo offesa, troppo amabil Medea (from Il Medo)
14. Sento due fiamme in petto (from Il Medo)


Exact Audio Copy V1.5 from 20. February 2020

EAC extraction logfile from 19. November 2020, 10:17

Leonardo Vinci; Franco Fagioli, Il Pomo d’Oro, Zefira Valova / Veni, Vidi, Vinci

Used drive : PLDS DVD+-RW DS-8A5SH Adapter: 1 ID: 0

Read mode : Secure
Utilize accurate stream : Yes
Defeat audio cache : Yes
Make use of C2 pointers : No

Read offset correction : 6
Overread into Lead-In and Lead-Out : No
Fill up missing offset samples with silence : Yes
Delete leading and trailing silent blocks : No
Null samples used in CRC calculations : Yes
Used interface : Native Win32 interface for Win NT & 2000

Used output format : User Defined Encoder
Selected bitrate : 768 kBit/s
Quality : High
Add ID3 tag : No
Command line compressor : C:\Program Files (x86)\Exact Audio Copy\FLAC\FLAC.EXE
Additional command line options : -6 -V -T "ARTIST=%artist%" -T "TITLE=%title%" -T "ALBUM=%albumtitle%" -T "DATE=%year%" -T "TRACKNUMBER=%tracknr%" -T "GENRE=%genre%" -T "COMMENT=%comment%" -T "BAND=%albuminterpret%" -T "ALBUMARTIST=%albuminterpret%" -T "COMPOSER=%composer%" %haslyrics%–tag-from-file=LYRICS="%lyricsfile%"%haslyrics% -T "DISCNUMBER=%cdnumber%" -T "TOTALDISCS=%totalcds%" -T "TOTALTRACKS=%numtracks%" %hascover%–picture="%coverfile%"%hascover% %source% -o %dest%


TOC of the extracted CD

Track | Start | Length | Start sector | End sector
––––––––––––––––––––––––––––-
1 | 0:00.00 | 4:28.47 | 0 | 20146
2 | 4:28.47 | 5:59.53 | 20147 | 47124
3 | 10:28.25 | 1:23.04 | 47125 | 53353
4 | 11:51.29 | 6:15.07 | 53354 | 81485
5 | 18:06.36 | 9:09.50 | 81486 | 122710
6 | 27:16.11 | 5:53.01 | 122711 | 149186
7 | 33:09.12 | 4:18.17 | 149187 | 168553
8 | 37:27.29 | 4:07.22 | 168554 | 187100
9 | 41:34.51 | 6:05.71 | 187101 | 214546
10 | 47:40.47 | 4:10.68 | 214547 | 233364
11 | 51:51.40 | 4:18.22 | 233365 | 252736
12 | 56:09.62 | 3:57.01 | 252737 | 270512
13 | 60:06.63 | 1:10.42 | 270513 | 275804
14 | 61:17.30 | 9:52.44 | 275805 | 320248


Range status and errors

Selected range

Filename C:\Users\User\Music\Franco Fagioli - Veni, Vidi, Vinci - 2020, FLAC\Leonardo Vinci; Franco Fagioli, Il Pomo d’Oro, Zefira Valova - Veni, Vidi, Vinci.wav

Peak level 92.8 %
Extraction speed 5.1 X
Range quality 100.0 %
Test CRC 867C2842
Copy CRC 867C2842
Copy OK

No errors occurred


AccurateRip summary

Track 1 not present in database
Track 2 not present in database
Track 3 not present in database
Track 4 not present in database
Track 5 not present in database
Track 6 not present in database
Track 7 not present in database
Track 8 not present in database
Track 9 not present in database
Track 10 not present in database
Track 11 not present in database
Track 12 not present in database
Track 13 not present in database
Track 14 not present in database

None of the tracks are present in the AccurateRip database

End of status report

–– CUETools DB Plugin V2.1.6

[CTDB TOCID: XbTChlTpMu.PLdnha57BOLFi1cE-] found
Submit result: already submitted
Track | CTDB Status
1 | (14/14) Accurately ripped
2 | (14/14) Accurately ripped
3 | (14/14) Accurately ripped
4 | (14/14) Accurately ripped
5 | (14/14) Accurately ripped
6 | (14/14) Accurately ripped
7 | (14/14) Accurately ripped
8 | (14/14) Accurately ripped
9 | (14/14) Accurately ripped
10 | (14/14) Accurately ripped
11 | (14/14) Accurately ripped
12 | (14/14) Accurately ripped
13 | (14/14) Accurately ripped
14 | (14/14) Accurately ripped


==== Log checksum CDCC72F58D486432D395FD27D3AD85BE6AC8C514C63ECEE77FAB73FCA8C62A49 ====

Franco Fagioli, Zefira Valova, Il Pomo d'Oro - Leonardo Vinci: Veni, Vidi, Vinci (2020)

Thanks to the original releaser