Subcategories

François-Xavier Roth, Les Siècles - Gustav Mahler: Symphony No. 1 'Titan' (2019)

Posted By: ArlegZ
François-Xavier Roth, Les Siècles - Gustav Mahler: Symphony No. 1 'Titan' (2019)

François-Xavier Roth, Les Siècles - Gustav Mahler: Symphony No. 1 'Titan' (2019)
EAC | FLAC | Image (Cue & Log) ~ 248 Mb | Total time: 57:01 | Scans included
Classical | Label: Harmonia Mundi | HMM 905299 | Recorded: 2018

Francois-Xavier Roth and Les Siècles present a fascinating new interpretation of Mahler's Symphony No.1. It features the first period instrument recording of the 1893-94 version, using a performing edition prepared by musicologists Anna Stoll Knecht and Benjamin Garzia, working in collaboration with Universal Edition. Initially presented as a symphonic poem entitled Titan, the work was met with severe criticism as it developed. This fascinating reconstruction using the composer's Hamburg and Weimar manuscripts testifies to the genius of one of the greatest symphonists of the modern era.

Performer:
Les Siècles
François-Xavier Roth, conductor

Track List:
Symphony No. 1 in D major 'Titan'
01. Frühling und kein Ende. Einleitung und Allegro comodo (Hamburg-Weimar 1893-94 Version)
02. Blumine. Andante (Hamburg-Weimar 1893-94 Version)
03. Mit vollen Segeln. Scherzo (Hamburg-Weimar 1893-94 Version)
04. Gestrandet! (Hamburg-Weimar 1893-94 Version)
05. Dall'Inferno. Allegro furioso. (Hamburg-Weimar 1893-94 Version)


Exact Audio Copy V1.3 from 2. September 2016

EAC extraction logfile from 8. December 2019, 17:15

François-Xavier Roth: Les Siècles / Titan - Eine Tondichtung in Symphonieform

Used drive : HL-DT-STDVDRAM GH24NSD5 Adapter: 1 ID: 0

Read mode : Secure
Utilize accurate stream : Yes
Defeat audio cache : Yes
Make use of C2 pointers : No

Read offset correction : 6
Overread into Lead-In and Lead-Out : No
Fill up missing offset samples with silence : Yes
Delete leading and trailing silent blocks : No
Null samples used in CRC calculations : Yes
Used interface : Native Win32 interface for Win NT & 2000

Used output format : User Defined Encoder
Selected bitrate : 896 kBit/s
Quality : High
Add ID3 tag : No
Command line compressor : C:\Program Files (x86)\Exact Audio Copy\FLAC\FLAC.EXE
Additional command line options : -6 -V -T "ARTIST=%artist%" -T "TITLE=%title%" -T "ALBUM=%albumtitle%" -T "DATE=%year%" -T "TRACKNUMBER=%tracknr%" -T "GENRE=%genre%" -T "COMMENT=%comment%" -T "BAND=%albuminterpret%" -T "ALBUMARTIST=%albuminterpret%" -T "COMPOSER=%composer%" %haslyrics%–tag-from-file=LYRICS="%lyricsfile%"%haslyrics% -T "DISCNUMBER=%cdnumber%" -T "TOTALDISCS=%totalcds%" -T "TOTALTRACKS=%numtracks%" %hascover%–picture="%coverfile%"%hascover% %source% -o %dest%


TOC of the extracted CD

Track | Start | Length | Start sector | End sector
––––––––––––––––––––––––––––-
1 | 0:00.00 | 14:38.38 | 0 | 65887
2 | 14:38.38 | 5:41.72 | 65888 | 91534
3 | 20:20.35 | 6:41.15 | 91535 | 121624
4 | 27:01.50 | 10:40.39 | 121625 | 169663
5 | 37:42.14 | 19:22.25 | 169664 | 256838


Range status and errors

Selected range

Filename H:\Rips\Mahler - Titan - Roth\François-Xavier Roth- Les Siècles - Titan - Eine Tondichtung in Symphonieform.wav

Peak level 100.0 %
Extraction speed 6.8 X
Range quality 100.0 %
Test CRC F1206AB9
Copy CRC F1206AB9
Copy OK

No errors occurred


AccurateRip summary

Track 1 accurately ripped (confidence 10) [24FFFC1D] (AR v2)
Track 2 accurately ripped (confidence 10) [040807EF] (AR v2)
Track 3 accurately ripped (confidence 10) [FA23F110] (AR v2)
Track 4 accurately ripped (confidence 10) [B06222E1] (AR v2)
Track 5 accurately ripped (confidence 10) [D8C42850] (AR v2)

All tracks accurately ripped

End of status report

–– CUETools DB Plugin V2.1.6

[CTDB TOCID: 2Z.iHpUCelLNTyLRF39KdaqcFQs-] found
Submit result: 2Z.iHpUCelLNTyLRF39KdaqcFQs- has been confirmed
Track | CTDB Status
1 | (45/45) Accurately ripped
2 | (45/45) Accurately ripped
3 | (45/45) Accurately ripped
4 | (45/45) Accurately ripped
5 | (45/45) Accurately ripped


==== Log checksum 8B5E510FCB2B74BB878F93ACB76F862D41449895D14D2F92970B829322CCB781 ====

François-Xavier Roth, Les Siècles - Gustav Mahler: Symphony No. 1 'Titan' (2019)

Thanks to the original releaser