Tags
Language
Tags

François Joubert-Caillet, L'Achéron - Marin Marais: Deuxième Livre de Pièces de Viole [5CDs] (2019)

Posted By:
François Joubert-Caillet, L'Achéron - Marin Marais: Deuxième Livre de Pièces de Viole [5CDs] (2019)

François Joubert-Caillet, L'Achéron - Marin Marais: Deuxième Livre de Pièces de Viole (2019)
EAC | FLAC | Image (Cue & Log) ~ 1.86 Mb | Total time: 05:56:24 | Scans included
Classical | Label: Ricercar | # RIC408 | Recorded: 2015-2018

Compiled from pieces that were clearly composed much earlier as well as from more recent works, the Deuxième Livre pays homage to its two masters and calls for tonalities that it had not yet employed; it evokes the past and the great lutenists of that time with the Pavane and yet also contains important innovations. It is truly a transitional work: published at the very dawn of the century, it opened the doors to the important stylistic changes that French music would undergo during the Age of Enlightenment. After studying the recorder, piano and double bass, François Joubert-Caillet studied the viola da gamba with Paolo Pandolfo at the Schola Cantorum Basiliensis, where he equally studied baroque improvisation with Rudolf Lutz. He was awarded First Prize as well as the Public's Award at the Bruges International Chamber Music competition. François Joubert-Caillet has played with numerous formations with whom he has recorded for the labels Ricercar, Harmonia Mundi, Ambronay, K617, ZigZag Territoires, Arcana, Winter&Winter, Aparté, Glossa, Sony, Naïve, etc. François Joubert-Caillet leads L'Acheron with which he performs in several formations, in particular the viol consort.

Performer:
François Joubert-Caillet, bass viol
L'Achéron


CD1:
[Suite en si mineur] continuo: harpsichord, bass viol
01. Prélude (83)
02. Petite Fantaisie (84)
03. Allemande (85)
04. Allemande (86)
05. Courante (87)
06. Sarabande (88)
07. Sarabande (89)
08. Gigue (90)
09. Gigue (91)
10. Gavotte (92)
11. Menuet (93)
12. Menuet (94)
13. Tombeau pour Mr de Lully (95)
[Suite en sol majeur] continuo: harp, theorbo
14. Prélude (65)
15. Allemande (68)
16. Sarabande (71)
17. Gigue La Badine (73)
18. Menuet (77)
19. Menuet (78)
20. Rondeau (76)
21. Chaconne en rondeau (82)
[Suite en ré majeur] continuo: theorbo, guitar)
22. Prélude (42)
23. Fantaisie (43)
24. Allemande La Familière (47)
25. Double (48)
26. Courante (52)
27. Sarabande (53)
28. Gigue (55)
29. Menuet (60)
30. Menuet (61)
31. Rondeau (58)
32. Chaconne (64)
CD2:
[Suite en la majeur] continuo: guitar, theorbo, bass viol
01. La Gracieuse (132)
02. Boutade (127)
03. Allemande (126)
04. Sarabande (131)
05. Gigue à l'anglaise (133)
06. Menuet (136)
07. Branle de village (138)
08. Air en vaudeville (140)
09. Rondeau moitié pincé (141)
Suite en ré mineur (continuo: harpsichord)
10. Prélude (21)
11. Prélude (3)
12. Allemande (23)
13. Courante (25)
14. Sarabande (11)
15. Sarabande grave (27)
16. Gigue (13)
17. Gavotte (15)
18. Menuet (18)
19. Menuet (35)
20. Caprice (14)
21. Rondeau (34)
22. Bourrasque (5)
23. Rondeau champêtre (37)
[Suite en sol majeur] continuo: guitar, bass viol
24. Prélude (81)
25. Allemande (66)
26. Double (67)
27. Courante (69)
28. Sarabande La Désolée (70)
29. Sarabande (72)
30. Gigue (74)
31. Gavotte (75)
32. Menuet (79)
33. Rondeau Champêtre (80)
CD3:
[Suite en mi mineur] continuo: theorbo, bass viol
01. Prélude (96)
02. Fantaisie (97)
03. Allemande (98)
04. Courante (99)
05. Sarabande (100)
06. Sarabande à l'espagnol (101)
07. Gigue (102)
08. Gigue La Badine (103)
09. Rondeau Champêtre (104)
10. Passacaille (105)
11. Gavotte (106)
12. Menuet (107)
13. Menuet (108)
14. Tombeau pour Mr de Saint-Colombe (109)
15. Fugue gaie (110)
[Suite en mi majeur] continuo: harpsichord
16. Prélude (111)
17. Allemande (112)
18. Allemande La Mignonne (113)
19. Courante (114)
20. Sarabande (115)
21. Pavane selon le goût des anciens compositeurs de luth (116)
22. Gavotte (117)
23. Gigue (118)
24. Gigue (119)
25. Rondeau irrégulier (120)
26. Menuet (121)
27. Menuet (122)
28. Rondeau en vaudeville (123)
29. Chaconne (124)
CD4:
[Suite en ré mineur] continuo: harp, bass viol
01. Prélude (1)
02. Allemande (24)
03. Courante (9)
04. Sarabande (28)
05. Gigue La Favorite (12)
06. Gigue (31)
07. Menuet (41)
08. Menuet (36)
09. Prélude (6)
10. La Follette (8)
11. Fantaisie luthée (30)
12. Boutade (29)
13. Paysanne (39)
14. Ballet en Rondeau (19)
15. La Polonoise (40)
16. Cloches ou Carillon (38)
[Suite en la majeur] continuo: harpsichord, bass viol
17. Prélude (125)
18. Allemande (128)
19. Courante (129)
20. Sarabande (130)
21. Gigue (134)
22. Gavotte (135)
23. Menuet (137)
24. Écho (139)
25. Fantaisie (142)
CD5:
[Suite en ré majeur] continuo: theorbo
01. Prélude (44)
02. Allemande (45)
03. Double (46)
04. Allemande (49)
05. Double (50)
06. Courante (51)
07. Sarabande (54)
08. Gigue à l’anglaise (56)
09. Gavotte (57)
10. Menuet (62)
11. La Villageoise (59)
12. Les Voix humaines (63)
[Suite en ré mineur] continuo: guitar, theorbo, harpsichord, bass viol
13. Prélude (4)
14. Fantaisie (2)
15. Allemande (7)
16. Courante (26)
17. Sarabande (10)
18. Gigue (32)
19. Double (33)
20. Menuet (16)
21. Menuet (17)
22. Prélude (22)
23. Couplets de Folies (20)



Exact Audio Copy V1.6 from 23. October 2020

EAC extraction logfile from 14. April 2021, 8:19

François Joubert-Caillet: L'Achéron / Marais: Deuxième Livre De Pièces De Viole (Disc 1)

Used drive : HL-DT-STDVDRAM GH24NSD5 Adapter: 1 ID: 0

Read mode : Secure
Utilize accurate stream : Yes
Defeat audio cache : Yes
Make use of C2 pointers : No

Read offset correction : 6
Overread into Lead-In and Lead-Out : No
Fill up missing offset samples with silence : Yes
Delete leading and trailing silent blocks : No
Null samples used in CRC calculations : Yes
Used interface : Native Win32 interface for Win NT & 2000

Used output format : User Defined Encoder
Selected bitrate : 1024 kBit/s
Quality : High
Add ID3 tag : No
Command line compressor : C:\Program Files (x86)\Exact Audio Copy\FLAC\FLAC.EXE
Additional command line options : -6 -V -T "ARTIST=%artist%" -T "TITLE=%title%" -T "ALBUM=%albumtitle%" -T "DATE=%year%" -T "TRACKNUMBER=%tracknr%" -T "GENRE=%genre%" -T "COMMENT=%comment%" -T "BAND=%albuminterpret%" -T "ALBUMARTIST=%albuminterpret%" -T "COMPOSER=%composer%" %haslyrics%–tag-from-file=LYRICS="%lyricsfile%"%haslyrics% -T "DISCNUMBER=%cdnumber%" -T "TOTALDISCS=%totalcds%" -T "TOTALTRACKS=%numtracks%" %hascover%–picture="%coverfile%"%hascover% %source% -o %dest%


TOC of the extracted CD

Track | Start | Length | Start sector | End sector
––––––––––––––––––––––––––––-
1 | 0:00.00 | 2:43.46 | 0 | 12270
2 | 2:43.46 | 0:38.35 | 12271 | 15155
3 | 3:22.06 | 3:31.46 | 15156 | 31026
4 | 6:53.52 | 2:36.53 | 31027 | 42779
5 | 9:30.30 | 1:56.74 | 42780 | 51553
6 | 11:27.29 | 3:02.13 | 51554 | 65216
7 | 14:29.42 | 2:43.18 | 65217 | 77459
8 | 17:12.60 | 1:37.60 | 77460 | 84794
9 | 18:50.45 | 1:44.05 | 84795 | 92599
10 | 20:34.50 | 1:17.31 | 92600 | 98405
11 | 21:52.06 | 0:48.13 | 98406 | 102018
12 | 22:40.19 | 0:54.70 | 102019 | 106138
13 | 23:35.14 | 8:37.49 | 106139 | 144962
14 | 32:12.63 | 4:54.22 | 144963 | 167034
15 | 37:07.10 | 3:02.64 | 167035 | 180748
16 | 40:09.74 | 3:09.51 | 180749 | 194974
17 | 43:19.50 | 1:55.46 | 194975 | 203645
18 | 45:15.21 | 0:38.46 | 203646 | 206541
19 | 45:53.67 | 0:49.33 | 206542 | 210249
20 | 46:43.25 | 2:18.73 | 210250 | 220672
21 | 49:02.23 | 5:12.64 | 220673 | 244136
22 | 54:15.12 | 1:58.43 | 244137 | 253029
23 | 56:13.55 | 1:16.57 | 253030 | 258786
24 | 57:30.37 | 2:24.36 | 258787 | 269622
25 | 59:54.73 | 2:33.02 | 269623 | 281099
26 | 62:28.00 | 2:05.01 | 281100 | 290475
27 | 64:33.01 | 4:18.47 | 290476 | 309872
28 | 68:51.48 | 2:15.66 | 309873 | 320063
29 | 71:07.39 | 1:07.31 | 320064 | 325119
30 | 72:14.70 | 1:02.19 | 325120 | 329788
31 | 73:17.14 | 1:35.07 | 329789 | 336920
32 | 74:52.21 | 4:36.45 | 336921 | 357665


Range status and errors

Selected range

Filename I:\Rips\Marais - Deuxième Livre de Pièces de Viole - L'Achéron\CD1\François Joubert-Caillet- L'Achéron - Marais- Deuxième Livre De Pièces De Viole (Disc 1).wav

Peak level 100.0 %
Extraction speed 2.1 X
Range quality 100.0 %
Test CRC BF7BCAAC
Copy CRC BF7BCAAC
Copy OK

No errors occurred


AccurateRip summary

Track 1 accurately ripped (confidence 3) [342359DA] (AR v2)
Track 2 accurately ripped (confidence 3) [A92180BB] (AR v2)
Track 3 accurately ripped (confidence 3) [38021F66] (AR v2)
Track 4 accurately ripped (confidence 3) [988AEC5D] (AR v2)
Track 5 accurately ripped (confidence 3) [4C2535A6] (AR v2)
Track 6 accurately ripped (confidence 3) [6681506F] (AR v2)
Track 7 accurately ripped (confidence 3) [84221090] (AR v2)
Track 8 accurately ripped (confidence 3) [BC343111] (AR v2)
Track 9 accurately ripped (confidence 3) [A17B4F78] (AR v2)
Track 10 accurately ripped (confidence 3) [D904B8AC] (AR v2)
Track 11 accurately ripped (confidence 3) [270A2AB4] (AR v2)
Track 12 accurately ripped (confidence 3) [B51EF0E2] (AR v2)
Track 13 accurately ripped (confidence 3) [E02257B4] (AR v2)
Track 14 accurately ripped (confidence 3) [B8073F4A] (AR v2)
Track 15 accurately ripped (confidence 3) [F0F46A83] (AR v2)
Track 16 accurately ripped (confidence 3) [16EDF9FF] (AR v2)
Track 17 accurately ripped (confidence 3) [AA46FDB3] (AR v2)
Track 18 accurately ripped (confidence 3) [4929AE6F] (AR v2)
Track 19 accurately ripped (confidence 3) [7C55FD75] (AR v2)
Track 20 accurately ripped (confidence 3) [5437E6E8] (AR v2)
Track 21 accurately ripped (confidence 3) [BE43C25C] (AR v2)
Track 22 accurately ripped (confidence 3) [DE43FB7F] (AR v2)
Track 23 accurately ripped (confidence 3) [AAB73C2F] (AR v2)
Track 24 accurately ripped (confidence 3) [280E3380] (AR v2)
Track 25 accurately ripped (confidence 3) [3EAC72C2] (AR v2)
Track 26 accurately ripped (confidence 3) [0F88BEF0] (AR v2)
Track 27 accurately ripped (confidence 3) [8D252232] (AR v2)
Track 28 accurately ripped (confidence 3) [B76739D7] (AR v2)
Track 29 accurately ripped (confidence 3) [BAA94380] (AR v2)
Track 30 accurately ripped (confidence 3) [4B68B668] (AR v2)
Track 31 accurately ripped (confidence 3) [96CEC0E9] (AR v2)
Track 32 accurately ripped (confidence 3) [8FE011CC] (AR v2)

All tracks accurately ripped

End of status report

–– CUETools DB Plugin V2.1.6

[CTDB TOCID: q8VW4fu2gFLZkvaml9XG8fq86KU-] found
Submit result: q8VW4fu2gFLZkvaml9XG8fq86KU- has been confirmed
Track | CTDB Status
1 | (14/14) Accurately ripped
2 | (14/14) Accurately ripped
3 | (14/14) Accurately ripped
4 | (14/14) Accurately ripped
5 | (13/14) Accurately ripped
6 | (13/14) Accurately ripped
7 | (14/14) Accurately ripped
8 | (14/14) Accurately ripped
9 | (14/14) Accurately ripped
10 | (14/14) Accurately ripped
11 | (14/14) Accurately ripped
12 | (14/14) Accurately ripped
13 | (14/14) Accurately ripped
14 | (14/14) Accurately ripped
15 | (14/14) Accurately ripped
16 | (14/14) Accurately ripped
17 | (14/14) Accurately ripped
18 | (14/14) Accurately ripped
19 | (14/14) Accurately ripped
20 | (14/14) Accurately ripped
21 | (14/14) Accurately ripped
22 | (14/14) Accurately ripped
23 | (14/14) Accurately ripped
24 | (14/14) Accurately ripped
25 | (14/14) Accurately ripped
26 | (14/14) Accurately ripped
27 | (14/14) Accurately ripped
28 | (14/14) Accurately ripped
29 | (14/14) Accurately ripped
30 | (14/14) Accurately ripped
31 | (14/14) Accurately ripped
32 | (14/14) Accurately ripped


==== Log checksum 6E7A1148FF80D5C46423D90AD263E68C1D52A7042E5800BC3E2421BE026A7A0F ====


Exact Audio Copy V1.6 from 23. October 2020

EAC extraction logfile from 14. April 2021, 9:09

François Joubert-Caillet: L'Achéron / Marais: Deuxième Livre De Pièces De Viole (Disc 2)

Used drive : HL-DT-STDVDRAM GH24NSD5 Adapter: 1 ID: 0

Read mode : Secure
Utilize accurate stream : Yes
Defeat audio cache : Yes
Make use of C2 pointers : No

Read offset correction : 6
Overread into Lead-In and Lead-Out : No
Fill up missing offset samples with silence : Yes
Delete leading and trailing silent blocks : No
Null samples used in CRC calculations : Yes
Used interface : Native Win32 interface for Win NT & 2000

Used output format : User Defined Encoder
Selected bitrate : 1024 kBit/s
Quality : High
Add ID3 tag : No
Command line compressor : C:\Program Files (x86)\Exact Audio Copy\FLAC\FLAC.EXE
Additional command line options : -6 -V -T "ARTIST=%artist%" -T "TITLE=%title%" -T "ALBUM=%albumtitle%" -T "DATE=%year%" -T "TRACKNUMBER=%tracknr%" -T "GENRE=%genre%" -T "COMMENT=%comment%" -T "BAND=%albuminterpret%" -T "ALBUMARTIST=%albuminterpret%" -T "COMPOSER=%composer%" %haslyrics%–tag-from-file=LYRICS="%lyricsfile%"%haslyrics% -T "DISCNUMBER=%cdnumber%" -T "TOTALDISCS=%totalcds%" -T "TOTALTRACKS=%numtracks%" %hascover%–picture="%coverfile%"%hascover% %source% -o %dest%


TOC of the extracted CD

Track | Start | Length | Start sector | End sector
––––––––––––––––––––––––––––-
1 | 0:00.00 | 2:42.31 | 0 | 12180
2 | 2:42.31 | 1:47.01 | 12181 | 20206
3 | 4:29.32 | 1:44.22 | 20207 | 28028
4 | 6:13.54 | 3:46.58 | 28029 | 45036
5 | 10:00.37 | 1:43.56 | 45037 | 52817
6 | 11:44.18 | 0:56.43 | 52818 | 57060
7 | 12:40.61 | 1:00.46 | 57061 | 61606
8 | 13:41.32 | 3:05.39 | 61607 | 75520
9 | 16:46.71 | 2:21.32 | 75521 | 86127
10 | 19:08.28 | 5:57.36 | 86128 | 112938
11 | 25:05.64 | 0:39.60 | 112939 | 115923
12 | 25:45.49 | 4:09.36 | 115924 | 134634
13 | 29:55.10 | 2:23.32 | 134635 | 145391
14 | 32:18.42 | 3:00.03 | 145392 | 158894
15 | 35:18.45 | 4:25.38 | 158895 | 178807
16 | 39:44.08 | 1:38.72 | 178808 | 186229
17 | 41:23.05 | 1:26.43 | 186230 | 192722
18 | 42:49.48 | 1:07.60 | 192723 | 197807
19 | 43:57.33 | 1:03.11 | 197808 | 202543
20 | 45:00.44 | 2:42.49 | 202544 | 214742
21 | 47:43.18 | 4:23.36 | 214743 | 234503
22 | 52:06.54 | 0:41.03 | 234504 | 237581
23 | 52:47.57 | 2:12.70 | 237582 | 247551
24 | 55:00.52 | 2:23.36 | 247552 | 258312
25 | 57:24.13 | 2:33.33 | 258313 | 269820
26 | 59:57.46 | 2:23.70 | 269821 | 280615
27 | 62:21.41 | 1:32.28 | 280616 | 287543
28 | 63:53.69 | 3:53.18 | 287544 | 305036
29 | 67:47.12 | 2:15.57 | 305037 | 315218
30 | 70:02.69 | 2:07.07 | 315219 | 324750
31 | 72:10.01 | 0:43.44 | 324751 | 328019
32 | 72:53.45 | 0:57.16 | 328020 | 332310
33 | 73:50.61 | 1:50.58 | 332311 | 340618


Range status and errors

Selected range

Filename I:\Rips\Marais - Deuxième Livre de Pièces de Viole - L'Achéron\CD2\François Joubert-Caillet- L'Achéron - Marais- Deuxième Livre De Pièces De Viole (Disc 2).wav

Peak level 81.7 %
Extraction speed 2.0 X
Range quality 100.0 %
Test CRC 121FBC8D
Copy CRC 121FBC8D
Copy OK

No errors occurred


AccurateRip summary

Track 1 accurately ripped (confidence 3) [25ED52EB] (AR v2)
Track 2 accurately ripped (confidence 3) [7163AED4] (AR v2)
Track 3 accurately ripped (confidence 3) [A3F4E160] (AR v2)
Track 4 accurately ripped (confidence 3) [9768ADBB] (AR v2)
Track 5 accurately ripped (confidence 3) [55AFE75C] (AR v2)
Track 6 accurately ripped (confidence 3) [6A6AD473] (AR v2)
Track 7 accurately ripped (confidence 3) [43C9242B] (AR v2)
Track 8 accurately ripped (confidence 3) [F303CBE3] (AR v2)
Track 9 accurately ripped (confidence 3) [41B549AB] (AR v2)
Track 10 accurately ripped (confidence 3) [EB402DF9] (AR v2)
Track 11 accurately ripped (confidence 3) [2F8F79F9] (AR v2)
Track 12 accurately ripped (confidence 3) [76E6EC67] (AR v2)
Track 13 accurately ripped (confidence 3) [1D3B84C8] (AR v2)
Track 14 accurately ripped (confidence 3) [22D55925] (AR v2)
Track 15 accurately ripped (confidence 3) [5A57A9E8] (AR v2)
Track 16 accurately ripped (confidence 3) [896E21A0] (AR v2)
Track 17 accurately ripped (confidence 3) [688AE101] (AR v2)
Track 18 accurately ripped (confidence 3) [9BD3E141] (AR v2)
Track 19 accurately ripped (confidence 3) [E3268A7C] (AR v2)
Track 20 accurately ripped (confidence 3) [BC684EDD] (AR v2)
Track 21 accurately ripped (confidence 3) [7FA4A895] (AR v2)
Track 22 accurately ripped (confidence 3) [96E52FA3] (AR v2)
Track 23 accurately ripped (confidence 3) [CFEA758C] (AR v2)
Track 24 accurately ripped (confidence 3) [06FC744F] (AR v2)
Track 25 accurately ripped (confidence 3) [E8A21FCA] (AR v2)
Track 26 accurately ripped (confidence 3) [D40E7557] (AR v2)
Track 27 accurately ripped (confidence 3) [29463B8F] (AR v2)
Track 28 accurately ripped (confidence 3) [5D663946] (AR v2)
Track 29 accurately ripped (confidence 3) [310D45D9] (AR v2)
Track 30 accurately ripped (confidence 3) [1FE39010] (AR v2)
Track 31 accurately ripped (confidence 3) [9AF94391] (AR v2)
Track 32 accurately ripped (confidence 3) [3B9C144D] (AR v2)
Track 33 accurately ripped (confidence 3) [B2C1A983] (AR v2)

All tracks accurately ripped

End of status report

–– CUETools DB Plugin V2.1.6

[CTDB TOCID: P3GQLegbDk_JXwveheQP8sfGFyE-] found
Submit result: P3GQLegbDk_JXwveheQP8sfGFyE- has been confirmed
Track | CTDB Status
1 | (14/14) Accurately ripped
2 | (14/14) Accurately ripped
3 | (14/14) Accurately ripped
4 | (14/14) Accurately ripped
5 | (14/14) Accurately ripped
6 | (14/14) Accurately ripped
7 | (14/14) Accurately ripped
8 | (14/14) Accurately ripped
9 | (14/14) Accurately ripped
10 | (14/14) Accurately ripped
11 | (14/14) Accurately ripped
12 | (14/14) Accurately ripped
13 | (14/14) Accurately ripped
14 | (14/14) Accurately ripped
15 | (14/14) Accurately ripped
16 | (14/14) Accurately ripped
17 | (14/14) Accurately ripped
18 | (14/14) Accurately ripped
19 | (14/14) Accurately ripped
20 | (14/14) Accurately ripped
21 | (14/14) Accurately ripped
22 | (14/14) Accurately ripped
23 | (14/14) Accurately ripped
24 | (14/14) Accurately ripped
25 | (14/14) Accurately ripped
26 | (14/14) Accurately ripped
27 | (14/14) Accurately ripped
28 | (14/14) Accurately ripped
29 | (14/14) Accurately ripped
30 | (14/14) Accurately ripped
31 | (14/14) Accurately ripped
32 | (14/14) Accurately ripped
33 | (14/14) Accurately ripped


==== Log checksum B79CE6C8FA3180F6ED5BD2DE710102044CA84550AC76D4FE3BC15207D021A04E ====


Exact Audio Copy V1.6 from 23. October 2020

EAC extraction logfile from 14. April 2021, 10:02

François Joubert-Caillet: L'Achéron / Marais: Deuxième Livre De Pièces De Viole (Disc 3)

Used drive : HL-DT-STDVDRAM GH24NSD5 Adapter: 1 ID: 0

Read mode : Secure
Utilize accurate stream : Yes
Defeat audio cache : Yes
Make use of C2 pointers : No

Read offset correction : 6
Overread into Lead-In and Lead-Out : No
Fill up missing offset samples with silence : Yes
Delete leading and trailing silent blocks : No
Null samples used in CRC calculations : Yes
Used interface : Native Win32 interface for Win NT & 2000

Used output format : User Defined Encoder
Selected bitrate : 1024 kBit/s
Quality : High
Add ID3 tag : No
Command line compressor : C:\Program Files (x86)\Exact Audio Copy\FLAC\FLAC.EXE
Additional command line options : -6 -V -T "ARTIST=%artist%" -T "TITLE=%title%" -T "ALBUM=%albumtitle%" -T "DATE=%year%" -T "TRACKNUMBER=%tracknr%" -T "GENRE=%genre%" -T "COMMENT=%comment%" -T "BAND=%albuminterpret%" -T "ALBUMARTIST=%albuminterpret%" -T "COMPOSER=%composer%" %haslyrics%–tag-from-file=LYRICS="%lyricsfile%"%haslyrics% -T "DISCNUMBER=%cdnumber%" -T "TOTALDISCS=%totalcds%" -T "TOTALTRACKS=%numtracks%" %hascover%–picture="%coverfile%"%hascover% %source% -o %dest%


TOC of the extracted CD

Track | Start | Length | Start sector | End sector
––––––––––––––––––––––––––––-
1 | 0:00.00 | 3:21.08 | 0 | 15082
2 | 3:21.08 | 1:21.56 | 15083 | 21213
3 | 4:42.64 | 2:35.16 | 21214 | 32854
4 | 7:18.05 | 1:50.37 | 32855 | 41141
5 | 9:08.42 | 3:58.64 | 41142 | 59055
6 | 13:07.31 | 2:51.60 | 59056 | 71940
7 | 15:59.16 | 2:44.33 | 71941 | 84273
8 | 18:43.49 | 1:08.72 | 84274 | 89445
9 | 19:52.46 | 3:33.02 | 89446 | 105422
10 | 23:25.48 | 2:33.61 | 105423 | 116958
11 | 25:59.34 | 0:46.44 | 116959 | 120452
12 | 26:46.03 | 0:54.05 | 120453 | 124507
13 | 27:40.08 | 1:01.20 | 124508 | 129102
14 | 28:41.28 | 8:56.36 | 129103 | 169338
15 | 37:37.64 | 3:45.54 | 169339 | 186267
16 | 41:23.43 | 2:40.12 | 186268 | 198279
17 | 44:03.55 | 2:35.70 | 198280 | 209974
18 | 46:39.50 | 2:22.45 | 209975 | 220669
19 | 49:02.20 | 1:45.59 | 220670 | 228603
20 | 50:48.04 | 3:03.35 | 228604 | 242363
21 | 53:51.39 | 6:09.23 | 242364 | 270061
22 | 60:00.62 | 1:08.72 | 270062 | 275233
23 | 61:09.59 | 1:43.33 | 275234 | 282991
24 | 62:53.17 | 1:28.09 | 282992 | 289600
25 | 64:21.26 | 5:18.51 | 289601 | 313501
26 | 69:40.02 | 0:46.17 | 313502 | 316968
27 | 70:26.19 | 0:49.62 | 316969 | 320705
28 | 71:16.06 | 1:58.17 | 320706 | 329572
29 | 73:14.23 | 4:52.62 | 329573 | 351534


Range status and errors

Selected range

Filename I:\Rips\Marais - Deuxième Livre de Pièces de Viole - L'Achéron\CD3\François Joubert-Caillet- L'Achéron - Marais- Deuxième Livre De Pièces De Viole (Disc 3).wav

Peak level 85.8 %
Extraction speed 2.1 X
Range quality 100.0 %
Test CRC 3EEC2680
Copy CRC 3EEC2680
Copy OK

No errors occurred


AccurateRip summary

Track 1 accurately ripped (confidence 3) [671860F7] (AR v2)
Track 2 accurately ripped (confidence 3) [21EFB469] (AR v2)
Track 3 accurately ripped (confidence 3) [04A22C60] (AR v2)
Track 4 accurately ripped (confidence 3) [03148A20] (AR v2)
Track 5 accurately ripped (confidence 3) [30B18885] (AR v2)
Track 6 accurately ripped (confidence 3) [AF275BF7] (AR v2)
Track 7 accurately ripped (confidence 3) [D7ABB0DB] (AR v2)
Track 8 accurately ripped (confidence 3) [7B9E3DAB] (AR v2)
Track 9 accurately ripped (confidence 3) [CCF9A2AC] (AR v2)
Track 10 accurately ripped (confidence 3) [4D6544E0] (AR v2)
Track 11 accurately ripped (confidence 3) [12206808] (AR v2)
Track 12 accurately ripped (confidence 3) [47A717FC] (AR v2)
Track 13 accurately ripped (confidence 3) [0DCC2ECD] (AR v2)
Track 14 accurately ripped (confidence 3) [A9792F50] (AR v2)
Track 15 accurately ripped (confidence 3) [531C734B] (AR v2)
Track 16 accurately ripped (confidence 3) [93BDEE84] (AR v2)
Track 17 accurately ripped (confidence 3) [21BDBB9B] (AR v2)
Track 18 accurately ripped (confidence 3) [E503B175] (AR v2)
Track 19 accurately ripped (confidence 3) [4A01D1B6] (AR v2)
Track 20 accurately ripped (confidence 3) [A96B885C] (AR v2)
Track 21 accurately ripped (confidence 3) [7F1AD865] (AR v2)
Track 22 accurately ripped (confidence 3) [63E62286] (AR v2)
Track 23 accurately ripped (confidence 3) [DEEAC802] (AR v2)
Track 24 accurately ripped (confidence 3) [8D930BD7] (AR v2)
Track 25 accurately ripped (confidence 3) [1FCF969E] (AR v2)
Track 26 accurately ripped (confidence 3) [FFB78518] (AR v2)
Track 27 accurately ripped (confidence 3) [DFD6DD6F] (AR v2)
Track 28 accurately ripped (confidence 3) [769AC914] (AR v2)
Track 29 accurately ripped (confidence 3) [F8861232] (AR v2)

All tracks accurately ripped

End of status report

–– CUETools DB Plugin V2.1.6

[CTDB TOCID: tKS0gfSHY_GRXkTS50ANRYStWJ0-] found
Submit result: tKS0gfSHY_GRXkTS50ANRYStWJ0- has been confirmed
Track | CTDB Status
1 | (14/14) Accurately ripped
2 | (14/14) Accurately ripped
3 | (14/14) Accurately ripped
4 | (14/14) Accurately ripped
5 | (14/14) Accurately ripped
6 | (14/14) Accurately ripped
7 | (14/14) Accurately ripped
8 | (14/14) Accurately ripped
9 | (14/14) Accurately ripped
10 | (14/14) Accurately ripped
11 | (14/14) Accurately ripped
12 | (14/14) Accurately ripped
13 | (14/14) Accurately ripped
14 | (14/14) Accurately ripped
15 | (14/14) Accurately ripped
16 | (14/14) Accurately ripped
17 | (14/14) Accurately ripped
18 | (14/14) Accurately ripped
19 | (14/14) Accurately ripped
20 | (14/14) Accurately ripped
21 | (14/14) Accurately ripped
22 | (14/14) Accurately ripped
23 | (14/14) Accurately ripped
24 | (14/14) Accurately ripped
25 | (14/14) Accurately ripped
26 | (14/14) Accurately ripped
27 | (14/14) Accurately ripped
28 | (14/14) Accurately ripped
29 | (14/14) Accurately ripped


==== Log checksum 97E9289901C857F757392D9AF5A6DDA310B0344CC7CB25A0D9EFDFA2948A17E2 ====


Exact Audio Copy V1.6 from 23. October 2020

EAC extraction logfile from 14. April 2021, 10:50

François Joubert-Caillet: L'Achéron / Marais: Deuxième Livre De Pièces De Viole (Disc 4)

Used drive : HL-DT-STDVDRAM GH24NSD5 Adapter: 1 ID: 0

Read mode : Secure
Utilize accurate stream : Yes
Defeat audio cache : Yes
Make use of C2 pointers : No

Read offset correction : 6
Overread into Lead-In and Lead-Out : No
Fill up missing offset samples with silence : Yes
Delete leading and trailing silent blocks : No
Null samples used in CRC calculations : Yes
Used interface : Native Win32 interface for Win NT & 2000

Used output format : User Defined Encoder
Selected bitrate : 1024 kBit/s
Quality : High
Add ID3 tag : No
Command line compressor : C:\Program Files (x86)\Exact Audio Copy\FLAC\FLAC.EXE
Additional command line options : -6 -V -T "ARTIST=%artist%" -T "TITLE=%title%" -T "ALBUM=%albumtitle%" -T "DATE=%year%" -T "TRACKNUMBER=%tracknr%" -T "GENRE=%genre%" -T "COMMENT=%comment%" -T "BAND=%albuminterpret%" -T "ALBUMARTIST=%albuminterpret%" -T "COMPOSER=%composer%" %haslyrics%–tag-from-file=LYRICS="%lyricsfile%"%haslyrics% -T "DISCNUMBER=%cdnumber%" -T "TOTALDISCS=%totalcds%" -T "TOTALTRACKS=%numtracks%" %hascover%–picture="%coverfile%"%hascover% %source% -o %dest%


TOC of the extracted CD

Track | Start | Length | Start sector | End sector
––––––––––––––––––––––––––––-
1 | 0:00.00 | 2:40.51 | 0 | 12050
2 | 2:40.51 | 4:26.70 | 12051 | 32070
3 | 7:07.46 | 1:35.03 | 32071 | 39198
4 | 8:42.49 | 3:26.29 | 39199 | 54677
5 | 12:09.03 | 2:06.49 | 54678 | 64176
6 | 14:15.52 | 2:03.54 | 64177 | 73455
7 | 16:19.31 | 1:05.17 | 73456 | 78347
8 | 17:24.48 | 1:19.09 | 78348 | 84281
9 | 18:43.57 | 2:01.73 | 84282 | 93429
10 | 20:45.55 | 1:21.25 | 93430 | 99529
11 | 22:07.05 | 1:47.07 | 99530 | 107561
12 | 23:54.12 | 1:37.00 | 107562 | 114836
13 | 25:31.12 | 1:15.18 | 114837 | 120479
14 | 26:46.30 | 5:02.56 | 120480 | 143185
15 | 31:49.11 | 2:21.15 | 143186 | 153775
16 | 34:10.26 | 5:32.57 | 153776 | 178732
17 | 39:43.08 | 2:21.37 | 178733 | 189344
18 | 42:04.45 | 2:49.67 | 189345 | 202086
19 | 44:54.37 | 1:29.70 | 202087 | 208831
20 | 46:24.32 | 2:52.55 | 208832 | 221786
21 | 49:17.12 | 1:38.37 | 221787 | 229173
22 | 50:55.49 | 1:21.22 | 229174 | 235270
23 | 52:16.71 | 0:48.20 | 235271 | 238890
24 | 53:05.16 | 2:40.35 | 238891 | 250925
25 | 55:45.51 | 5:41.21 | 250926 | 276521


Range status and errors

Selected range

Filename I:\Rips\Marais - Deuxième Livre de Pièces de Viole - L'Achéron\CD4\François Joubert-Caillet- L'Achéron - Marais- Deuxième Livre De Pièces De Viole (Disc 4).wav

Peak level 100.0 %
Extraction speed 1.8 X
Range quality 100.0 %
Test CRC 282A6909
Copy CRC 282A6909
Copy OK

No errors occurred


AccurateRip summary

Track 1 accurately ripped (confidence 3) [B96A0C65] (AR v2)
Track 2 accurately ripped (confidence 3) [ACDF03FB] (AR v2)
Track 3 accurately ripped (confidence 3) [199FB37C] (AR v2)
Track 4 accurately ripped (confidence 3) [878C79AC] (AR v2)
Track 5 accurately ripped (confidence 3) [45A526DE] (AR v2)
Track 6 accurately ripped (confidence 3) [309E3368] (AR v2)
Track 7 accurately ripped (confidence 3) [BD2A2C51] (AR v2)
Track 8 accurately ripped (confidence 3) [7E65C9F3] (AR v2)
Track 9 accurately ripped (confidence 3) [97565F20] (AR v2)
Track 10 accurately ripped (confidence 3) [B5408DBF] (AR v2)
Track 11 accurately ripped (confidence 3) [56A7D4C0] (AR v2)
Track 12 accurately ripped (confidence 3) [5D6CDEBB] (AR v2)
Track 13 accurately ripped (confidence 3) [860F6212] (AR v2)
Track 14 accurately ripped (confidence 3) [40972936] (AR v2)
Track 15 accurately ripped (confidence 3) [DB0E7892] (AR v2)
Track 16 accurately ripped (confidence 3) [99C18814] (AR v2)
Track 17 accurately ripped (confidence 3) [BB8F1896] (AR v2)
Track 18 accurately ripped (confidence 3) [41AF3DC7] (AR v2)
Track 19 accurately ripped (confidence 3) [0887B347] (AR v2)
Track 20 accurately ripped (confidence 3) [73A2F443] (AR v2)
Track 21 accurately ripped (confidence 3) [03D5AB31] (AR v2)
Track 22 accurately ripped (confidence 3) [90D3B5E7] (AR v2)
Track 23 accurately ripped (confidence 3) [DFCF1341] (AR v2)
Track 24 accurately ripped (confidence 3) [E81AACE3] (AR v2)
Track 25 accurately ripped (confidence 3) [EF6FF432] (AR v2)

All tracks accurately ripped

End of status report

–– CUETools DB Plugin V2.1.6

[CTDB TOCID: aYPF6PbfT1kbD_dgz.q2H1e1JoY-] found
Submit result: aYPF6PbfT1kbD_dgz.q2H1e1JoY- has been confirmed
Track | CTDB Status
1 | (14/14) Accurately ripped
2 | (14/14) Accurately ripped
3 | (14/14) Accurately ripped
4 | (14/14) Accurately ripped
5 | (14/14) Accurately ripped
6 | (14/14) Accurately ripped
7 | (14/14) Accurately ripped
8 | (14/14) Accurately ripped
9 | (14/14) Accurately ripped
10 | (14/14) Accurately ripped
11 | (14/14) Accurately ripped
12 | (14/14) Accurately ripped
13 | (14/14) Accurately ripped
14 | (14/14) Accurately ripped
15 | (14/14) Accurately ripped
16 | (14/14) Accurately ripped
17 | (14/14) Accurately ripped
18 | (14/14) Accurately ripped
19 | (14/14) Accurately ripped
20 | (14/14) Accurately ripped
21 | (14/14) Accurately ripped
22 | (14/14) Accurately ripped
23 | (14/14) Accurately ripped
24 | (14/14) Accurately ripped
25 | (14/14) Accurately ripped


==== Log checksum 566B2AF5E250D3F32B80DE2FD7D16E5F1FE3066B62CCCDD6CBAF62E38228F143 ====


Exact Audio Copy V1.6 from 23. October 2020

EAC extraction logfile from 14. April 2021, 11:41

François Joubert-Caillet: L'Achéron / Marais: Deuxième Livre De Pièces De Viole (Disc 5)

Used drive : HL-DT-STDVDRAM GH24NSD5 Adapter: 1 ID: 0

Read mode : Secure
Utilize accurate stream : Yes
Defeat audio cache : Yes
Make use of C2 pointers : No

Read offset correction : 6
Overread into Lead-In and Lead-Out : No
Fill up missing offset samples with silence : Yes
Delete leading and trailing silent blocks : No
Null samples used in CRC calculations : Yes
Used interface : Native Win32 interface for Win NT & 2000

Used output format : User Defined Encoder
Selected bitrate : 1024 kBit/s
Quality : High
Add ID3 tag : No
Command line compressor : C:\Program Files (x86)\Exact Audio Copy\FLAC\FLAC.EXE
Additional command line options : -6 -V -T "ARTIST=%artist%" -T "TITLE=%title%" -T "ALBUM=%albumtitle%" -T "DATE=%year%" -T "TRACKNUMBER=%tracknr%" -T "GENRE=%genre%" -T "COMMENT=%comment%" -T "BAND=%albuminterpret%" -T "ALBUMARTIST=%albuminterpret%" -T "COMPOSER=%composer%" %haslyrics%–tag-from-file=LYRICS="%lyricsfile%"%haslyrics% -T "DISCNUMBER=%cdnumber%" -T "TOTALDISCS=%totalcds%" -T "TOTALTRACKS=%numtracks%" %hascover%–picture="%coverfile%"%hascover% %source% -o %dest%


TOC of the extracted CD

Track | Start | Length | Start sector | End sector
––––––––––––––––––––––––––––-
1 | 0:00.00 | 1:57.47 | 0 | 8821
2 | 1:57.47 | 2:45.51 | 8822 | 21247
3 | 4:43.23 | 3:15.47 | 21248 | 35919
4 | 7:58.70 | 3:01.21 | 35920 | 49515
5 | 11:00.16 | 3:04.74 | 49516 | 63389
6 | 14:05.15 | 1:57.35 | 63390 | 72199
7 | 16:02.50 | 3:14.50 | 72200 | 86799
8 | 19:17.25 | 1:13.04 | 86800 | 92278
9 | 20:30.29 | 1:06.40 | 92279 | 97268
10 | 21:36.69 | 1:05.72 | 97269 | 102215
11 | 22:42.66 | 0:53.20 | 102216 | 106210
12 | 23:36.11 | 4:27.52 | 106211 | 126287
13 | 28:03.63 | 3:40.11 | 126288 | 142798
14 | 31:43.74 | 0:56.16 | 142799 | 147014
15 | 32:40.15 | 3:09.09 | 147015 | 161198
16 | 35:49.24 | 2:22.62 | 161199 | 171910
17 | 38:12.11 | 3:37.55 | 171911 | 188240
18 | 41:49.66 | 2:45.22 | 188241 | 200637
19 | 44:35.13 | 2:48.12 | 200638 | 213249
20 | 47:23.25 | 1:15.48 | 213250 | 218922
21 | 48:38.73 | 1:26.35 | 218923 | 225407
22 | 50:05.33 | 2:11.53 | 225408 | 235285
23 | 52:17.11 | 14:56.14 | 235286 | 302499


Range status and errors

Selected range

Filename I:\Rips\Marais - Deuxième Livre de Pièces de Viole - L'Achéron\CD5\François Joubert-Caillet- L'Achéron - Marais- Deuxième Livre De Pièces De Viole (Disc 5).wav

Peak level 85.7 %
Extraction speed 1.8 X
Range quality 100.0 %
Test CRC B59F3E08
Copy CRC B59F3E08
Copy OK

No errors occurred


AccurateRip summary

Track 1 accurately ripped (confidence 3) [4D9F803B] (AR v2)
Track 2 accurately ripped (confidence 3) [EFEDD2E2] (AR v2)
Track 3 accurately ripped (confidence 3) [A5C0FB38] (AR v2)
Track 4 accurately ripped (confidence 3) [376539CA] (AR v2)
Track 5 accurately ripped (confidence 3) [B5C8B9A9] (AR v2)
Track 6 accurately ripped (confidence 3) [39D59FE9] (AR v2)
Track 7 accurately ripped (confidence 3) [40C2722B] (AR v2)
Track 8 accurately ripped (confidence 3) [D9390651] (AR v2)
Track 9 accurately ripped (confidence 3) [67AD8850] (AR v2)
Track 10 accurately ripped (confidence 3) [2F59B9C2] (AR v2)
Track 11 accurately ripped (confidence 3) [91A5D02E] (AR v2)
Track 12 accurately ripped (confidence 3) [204A0B58] (AR v2)
Track 13 accurately ripped (confidence 3) [CADD6792] (AR v2)
Track 14 accurately ripped (confidence 3) [04507CA0] (AR v2)
Track 15 accurately ripped (confidence 3) [72A40DF6] (AR v2)
Track 16 accurately ripped (confidence 3) [C0311747] (AR v2)
Track 17 accurately ripped (confidence 3) [6AE54DB4] (AR v2)
Track 18 accurately ripped (confidence 3) [B9C3CBD3] (AR v2)
Track 19 accurately ripped (confidence 3) [010AE779] (AR v2)
Track 20 accurately ripped (confidence 3) [5B50F94B] (AR v2)
Track 21 accurately ripped (confidence 3) [AA9F3716] (AR v2)
Track 22 accurately ripped (confidence 3) [F5C5AF6C] (AR v2)
Track 23 accurately ripped (confidence 3) [783DB34A] (AR v2)

All tracks accurately ripped

End of status report

–– CUETools DB Plugin V2.1.6

[CTDB TOCID: kB5HhQwVdJHR0f8r8LxXknald7A-] found
Submit result: kB5HhQwVdJHR0f8r8LxXknald7A- has been confirmed
Track | CTDB Status
1 | (14/14) Accurately ripped
2 | (14/14) Accurately ripped
3 | (14/14) Accurately ripped
4 | (14/14) Accurately ripped
5 | (14/14) Accurately ripped
6 | (14/14) Accurately ripped
7 | (14/14) Accurately ripped
8 | (14/14) Accurately ripped
9 | (14/14) Accurately ripped
10 | (14/14) Accurately ripped
11 | (14/14) Accurately ripped
12 | (14/14) Accurately ripped
13 | (14/14) Accurately ripped
14 | (14/14) Accurately ripped
15 | (14/14) Accurately ripped
16 | (14/14) Accurately ripped
17 | (14/14) Accurately ripped
18 | (14/14) Accurately ripped
19 | (14/14) Accurately ripped
20 | (14/14) Accurately ripped
21 | (14/14) Accurately ripped
22 | (14/14) Accurately ripped
23 | (14/14) Accurately ripped


==== Log checksum A1F25553EF443CADB6A19D4219FFC8ECEFE511B3917DE102D0DEE8E2604F2709 ====


François Joubert-Caillet, L'Achéron - Marin Marais: Deuxième Livre de Pièces de Viole [5CDs] (2019)

Thanks to the original releaser