Tags
Language
Tags

François Joubert-Caillet, L'Achéron - Marin Marais: Premier Livre de Pièces de Viole [4CDs] (2017)

Posted By: ArlegZ
François Joubert-Caillet, L'Achéron - Marin Marais: Premier Livre de Pièces de Viole [4CDs] (2017)

François Joubert-Caillet, L'Achéron - Marin Marais: Premier Livre de Pièces de Viole (2017)
EAC | FLAC | Image (Cue & Log) ~ 1.24 Gb | Total time: 04:16:17 | Scans included
Classical | Label: Ricercar | # RIC 379 | Recorded: 2015-2016

Here is the start of a great adventure: the complete recording of the five books of pièces de viole of Marin Marais. The First Book, published in 1686, contains a dozen suites, two of which are scored for two bass viols and continuo. It also features a very moving Tombeau for ‘Monsieur Méliton’, probably one of Marais’s teachers, and a set of variations on a theme given to the composer by an ‘estranger’, which foreshadows one of the principal compositions of his Second Book, the Couplets des Folies d’Espagne.

Performer:
François Joubert-Caillet, bass viol
L'Achéron:
Andreas Linos, bass viol
Miguel Henry, theorbo
Vincent Flückiger, guitar & archlute
Philippe Grisvard, harpsichord

Track List:
CD1:
Suite en ré mineur
01. Prélude (1)
02. Fantaisie (5)
03. Allemande (6)
04. Double (7)
05. Courante (13)
06. Double (14)
07. Sarabande (15)
08. Gigue (16)
09. Double (17)
10. Prélude (3)
11. Fantaisie (21)
12. Gavotte (27)
13. Menuet (25)
14. Rondeau (24)
Suite en sol majeur à deux violes
15. Prélude (73)
16. Allemande (74)
17. Courante (75)
18. Sarabande (76)
19. Gigue (77)
20. Gavotte en rondeau (78)
21. Menuet (79)
22. Gavotte (80)
23. Fantaisie en écho (81)
24. Chaconne (82)
CD2:
Suite en la majeur
01. Prélude (56)
02. Boutade (57)
03. Allemande (58)
04. Double (59)
05. Courante (60)
06. Sarabande (61)
07. Sarabande (62)
08. Gigue (63)
09. Menuet (64)
10. Rondeau (65)
11. Fantaisie en si mineur (91)
Suite en ré mineur
12. Prélude (4)
13. Prélude (2)
14. Allemande (8)
15. Double (9)
16. Courante (10)
17. Double (11)
18. Sarabande (12)
19. Gigue (18)
20. Gigue (19)
21. Double (20)
22. Menuet (23)
23. Gavotte en rondeau (26)
24. Rondeau (22)
CD3:
01. Sujet diversitez (92)
02. Tombeau de Mr Meliton à deux violes (83)
03. Rondeau (93)
Suite en ré majeur
04. Prélude (28)
05. Allemande (32)
06. Double (33)
07. Courante (35)
08. Double (36)
09. Sarabande (37)
10. Gigue (40)
11. La Paysane (41)
12. Menuet (45)
13. Menuet (46)
14. Chaconne (47)
Suite en sol mineur
15. Prélude (48)
16. Allemande (49)
17. Courante (50)
18. Sarabande (51)
19. Gigue (52)
20. Gavotte (53)
21. Menuet (54)
22. Prélude (55)
CD4:
Suite en ré mineur à deux violes
01. Prélude (66)
02. Allemande (67)
03. Courante (68)
04. Sarabande (69)
05. Gigue (70)
06. Gavotte (71)
07. Menuet (72)
Suite en ré majeur
08. Prélude (30)
09. Fantaisie (29)
10. Allemande (31)
11. Courante (34)
12. Sarabande (38)
13. Gigue (39)
14. Gavotte (43)
15. Menuet (44)
16. Rondeau (42)
Suite en fa dièse mineur
17. Prélude (84)
18. Allemande (85)
19. Courante (86)
20. Sarabande (87)
21. Gigue (88)
22. Menuet (89)
23. Rondeau (90)


Exact Audio Copy V1.6 from 23. October 2020

EAC extraction logfile from 5. April 2021, 23:23

François Joubert-Caillet: L'Achéron / Marais: Premier Livre Des Pièces De Viole (Disc 1)

Used drive : HL-DT-STDVDRAM GH24NSD5 Adapter: 1 ID: 0

Read mode : Secure
Utilize accurate stream : Yes
Defeat audio cache : Yes
Make use of C2 pointers : No

Read offset correction : 6
Overread into Lead-In and Lead-Out : No
Fill up missing offset samples with silence : Yes
Delete leading and trailing silent blocks : No
Null samples used in CRC calculations : Yes
Used interface : Native Win32 interface for Win NT & 2000

Used output format : User Defined Encoder
Selected bitrate : 1024 kBit/s
Quality : High
Add ID3 tag : No
Command line compressor : C:\Program Files (x86)\Exact Audio Copy\FLAC\FLAC.EXE
Additional command line options : -6 -V -T "ARTIST=%artist%" -T "TITLE=%title%" -T "ALBUM=%albumtitle%" -T "DATE=%year%" -T "TRACKNUMBER=%tracknr%" -T "GENRE=%genre%" -T "COMMENT=%comment%" -T "BAND=%albuminterpret%" -T "ALBUMARTIST=%albuminterpret%" -T "COMPOSER=%composer%" %haslyrics%–tag-from-file=LYRICS="%lyricsfile%"%haslyrics% -T "DISCNUMBER=%cdnumber%" -T "TOTALDISCS=%totalcds%" -T "TOTALTRACKS=%numtracks%" %hascover%–picture="%coverfile%"%hascover% %source% -o %dest%


TOC of the extracted CD

Track | Start | Length | Start sector | End sector
––––––––––––––––––––––––––––-
1 | 0:00.00 | 4:54.37 | 0 | 22086
2 | 4:54.37 | 0:53.42 | 22087 | 26103
3 | 5:48.04 | 4:10.72 | 26104 | 44925
4 | 9:59.01 | 4:01.32 | 44926 | 63032
5 | 14:00.33 | 2:03.57 | 63033 | 72314
6 | 16:04.15 | 1:50.31 | 72315 | 80595
7 | 17:54.46 | 2:59.72 | 80596 | 94092
8 | 20:54.43 | 2:19.68 | 94093 | 104585
9 | 23:14.36 | 2:29.13 | 104586 | 115773
10 | 25:43.49 | 2:11.56 | 115774 | 125654
11 | 27:55.30 | 0:49.08 | 125655 | 129337
12 | 28:44.38 | 1:14.33 | 129338 | 134920
13 | 29:58.71 | 0:44.14 | 134921 | 138234
14 | 30:43.10 | 2:38.08 | 138235 | 150092
15 | 33:21.18 | 1:46.62 | 150093 | 158104
16 | 35:08.05 | 3:48.59 | 158105 | 175263
17 | 38:56.64 | 2:19.65 | 175264 | 185753
18 | 41:16.54 | 2:56.16 | 185754 | 198969
19 | 44:12.70 | 2:52.71 | 198970 | 211940
20 | 47:05.66 | 2:28.71 | 211941 | 223111
21 | 49:34.62 | 1:11.23 | 223112 | 228459
22 | 50:46.10 | 1:00.32 | 228460 | 232991
23 | 51:46.42 | 1:41.45 | 232992 | 240611
24 | 53:28.12 | 7:19.61 | 240612 | 273597


Range status and errors

Selected range

Filename I:\Rips\CD1\François Joubert-Caillet- L'Achéron - Marais- Premier Livre Des Pièces De Viole (Disc 1).wav

Peak level 72.6 %
Extraction speed 7.1 X
Range quality 100.0 %
Test CRC E9BD0287
Copy CRC E9BD0287
Copy OK

No errors occurred


AccurateRip summary

Track 1 accurately ripped (confidence 10) [CD8B974D] (AR v2)
Track 2 accurately ripped (confidence 10) [E98EB6F9] (AR v2)
Track 3 accurately ripped (confidence 10) [440E4CC1] (AR v2)
Track 4 accurately ripped (confidence 10) [F65B60C9] (AR v2)
Track 5 accurately ripped (confidence 10) [F4FA928D] (AR v2)
Track 6 accurately ripped (confidence 10) [465BEBEA] (AR v2)
Track 7 accurately ripped (confidence 10) [92B2D7BF] (AR v2)
Track 8 accurately ripped (confidence 10) [10AC6119] (AR v2)
Track 9 accurately ripped (confidence 10) [87A630B3] (AR v2)
Track 10 accurately ripped (confidence 10) [B5CBAD12] (AR v2)
Track 11 accurately ripped (confidence 10) [C092A280] (AR v2)
Track 12 accurately ripped (confidence 10) [7542CA9E] (AR v2)
Track 13 accurately ripped (confidence 10) [48986437] (AR v2)
Track 14 accurately ripped (confidence 10) [7C339F99] (AR v2)
Track 15 accurately ripped (confidence 10) [E66B4826] (AR v2)
Track 16 accurately ripped (confidence 10) [6A850AB4] (AR v2)
Track 17 accurately ripped (confidence 10) [0697E911] (AR v2)
Track 18 accurately ripped (confidence 10) [D68D6C8F] (AR v2)
Track 19 accurately ripped (confidence 10) [FC467761] (AR v2)
Track 20 accurately ripped (confidence 10) [685263F5] (AR v2)
Track 21 accurately ripped (confidence 10) [A036795C] (AR v2)
Track 22 accurately ripped (confidence 10) [8F4839BB] (AR v2)
Track 23 accurately ripped (confidence 10) [08CDEA5C] (AR v2)
Track 24 accurately ripped (confidence 10) [8452CE4D] (AR v2)

All tracks accurately ripped

End of status report

–– CUETools DB Plugin V2.1.6

[CTDB TOCID: ZipaPnAJIsZjNKJBdZvfNpJatrU-] found
Submit result: ZipaPnAJIsZjNKJBdZvfNpJatrU- has been confirmed
Track | CTDB Status
1 | (20/20) Accurately ripped
2 | (20/20) Accurately ripped
3 | (20/20) Accurately ripped
4 | (20/20) Accurately ripped
5 | (20/20) Accurately ripped
6 | (20/20) Accurately ripped
7 | (20/20) Accurately ripped
8 | (20/20) Accurately ripped
9 | (20/20) Accurately ripped
10 | (20/20) Accurately ripped
11 | (20/20) Accurately ripped
12 | (20/20) Accurately ripped
13 | (20/20) Accurately ripped
14 | (20/20) Accurately ripped
15 | (20/20) Accurately ripped
16 | (20/20) Accurately ripped
17 | (20/20) Accurately ripped
18 | (20/20) Accurately ripped
19 | (20/20) Accurately ripped
20 | (20/20) Accurately ripped
21 | (20/20) Accurately ripped
22 | (20/20) Accurately ripped
23 | (20/20) Accurately ripped
24 | (20/20) Accurately ripped


==== Log checksum 1635A4F6BF1B2D79C020BFD3152926429F98AE6BBD9FCF88E4950845ABA13F9A ====


Exact Audio Copy V1.6 from 23. October 2020

EAC extraction logfile from 6. April 2021, 0:13

François Joubert-Caillet / Marin Marais: Premier Livre des Pièces de Viole (Disc 2)

Used drive : HL-DT-STDVDRAM GH24NSD5 Adapter: 1 ID: 0

Read mode : Secure
Utilize accurate stream : Yes
Defeat audio cache : Yes
Make use of C2 pointers : No

Read offset correction : 6
Overread into Lead-In and Lead-Out : No
Fill up missing offset samples with silence : Yes
Delete leading and trailing silent blocks : No
Null samples used in CRC calculations : Yes
Used interface : Native Win32 interface for Win NT & 2000

Used output format : User Defined Encoder
Selected bitrate : 1024 kBit/s
Quality : High
Add ID3 tag : No
Command line compressor : C:\Program Files (x86)\Exact Audio Copy\FLAC\FLAC.EXE
Additional command line options : -6 -V -T "ARTIST=%artist%" -T "TITLE=%title%" -T "ALBUM=%albumtitle%" -T "DATE=%year%" -T "TRACKNUMBER=%tracknr%" -T "GENRE=%genre%" -T "COMMENT=%comment%" -T "BAND=%albuminterpret%" -T "ALBUMARTIST=%albuminterpret%" -T "COMPOSER=%composer%" %haslyrics%–tag-from-file=LYRICS="%lyricsfile%"%haslyrics% -T "DISCNUMBER=%cdnumber%" -T "TOTALDISCS=%totalcds%" -T "TOTALTRACKS=%numtracks%" %hascover%–picture="%coverfile%"%hascover% %source% -o %dest%


TOC of the extracted CD

Track | Start | Length | Start sector | End sector
––––––––––––––––––––––––––––-
1 | 0:00.00 | 1:06.20 | 0 | 4969
2 | 1:06.20 | 0:56.18 | 4970 | 9187
3 | 2:02.38 | 2:30.34 | 9188 | 20471
4 | 4:32.72 | 2:45.25 | 20472 | 32871
5 | 7:18.22 | 1:21.13 | 32872 | 38959
6 | 8:39.35 | 2:46.17 | 38960 | 51426
7 | 11:25.52 | 2:40.05 | 51427 | 63431
8 | 14:05.57 | 1:49.57 | 63432 | 71663
9 | 15:55.39 | 1:55.42 | 71664 | 80330
10 | 17:51.06 | 5:05.40 | 80331 | 103245
11 | 22:56.46 | 5:31.07 | 103246 | 128077
12 | 28:27.53 | 3:33.42 | 128078 | 144094
13 | 32:01.20 | 0:28.10 | 144095 | 146204
14 | 32:29.30 | 3:06.32 | 146205 | 160186
15 | 35:35.62 | 3:01.45 | 160187 | 173806
16 | 38:37.32 | 1:46.11 | 173807 | 181767
17 | 40:23.43 | 1:39.70 | 181768 | 189262
18 | 42:03.38 | 3:31.32 | 189263 | 205119
19 | 45:34.70 | 1:37.59 | 205120 | 212453
20 | 47:12.54 | 3:24.23 | 212454 | 227776
21 | 50:37.02 | 3:33.46 | 227777 | 243797
22 | 54:10.48 | 1:12.69 | 243798 | 249266
23 | 55:23.42 | 1:59.66 | 249267 | 258257
24 | 57:23.33 | 4:22.20 | 258258 | 277927


Range status and errors

Selected range

Filename I:\Rips\CD2\François Joubert-Caillet - Marin Marais- Premier Livre des Pièces de Viole (Disc 2).wav

Peak level 93.2 %
Extraction speed 1.8 X
Range quality 100.0 %
Test CRC 76A14BE3
Copy CRC 76A14BE3
Copy OK

No errors occurred


AccurateRip summary

Track 1 accurately ripped (confidence 10) [BD30F887] (AR v2)
Track 2 accurately ripped (confidence 10) [88236719] (AR v2)
Track 3 accurately ripped (confidence 10) [9F84D3FB] (AR v2)
Track 4 accurately ripped (confidence 10) [06EABCFE] (AR v2)
Track 5 accurately ripped (confidence 10) [E3BAD077] (AR v2)
Track 6 accurately ripped (confidence 10) [13608A59] (AR v2)
Track 7 accurately ripped (confidence 10) [ECD71FBD] (AR v2)
Track 8 accurately ripped (confidence 10) [3BCFF5AD] (AR v2)
Track 9 accurately ripped (confidence 10) [7DA0AD2C] (AR v2)
Track 10 accurately ripped (confidence 10) [6273EF71] (AR v2)
Track 11 accurately ripped (confidence 10) [8A5E5162] (AR v2)
Track 12 accurately ripped (confidence 10) [F6A2CF9C] (AR v2)
Track 13 accurately ripped (confidence 10) [6775F54E] (AR v2)
Track 14 accurately ripped (confidence 10) [5AFD9AEA] (AR v2)
Track 15 accurately ripped (confidence 10) [778112D1] (AR v2)
Track 16 accurately ripped (confidence 10) [0457CCCD] (AR v2)
Track 17 accurately ripped (confidence 10) [F0DD0F8C] (AR v2)
Track 18 accurately ripped (confidence 10) [38DD658C] (AR v2)
Track 19 accurately ripped (confidence 10) [D1F5CBAA] (AR v2)
Track 20 accurately ripped (confidence 10) [CAF720B8] (AR v2)
Track 21 accurately ripped (confidence 10) [665F1BC0] (AR v2)
Track 22 accurately ripped (confidence 10) [0E3F4D9F] (AR v2)
Track 23 accurately ripped (confidence 10) [D364A6F2] (AR v2)
Track 24 accurately ripped (confidence 10) [ECC0776A] (AR v2)

All tracks accurately ripped

End of status report

–– CUETools DB Plugin V2.1.6

[CTDB TOCID: pS6eT4qoDkVlGRRjGgZJAkkzmpc-] found
Submit result: pS6eT4qoDkVlGRRjGgZJAkkzmpc- has been confirmed
Track | CTDB Status
1 | (19/19) Accurately ripped
2 | (19/19) Accurately ripped
3 | (19/19) Accurately ripped
4 | (19/19) Accurately ripped
5 | (19/19) Accurately ripped
6 | (19/19) Accurately ripped
7 | (18/19) Accurately ripped
8 | (19/19) Accurately ripped
9 | (19/19) Accurately ripped
10 | (19/19) Accurately ripped
11 | (19/19) Accurately ripped
12 | (19/19) Accurately ripped
13 | (19/19) Accurately ripped
14 | (19/19) Accurately ripped
15 | (19/19) Accurately ripped
16 | (19/19) Accurately ripped
17 | (19/19) Accurately ripped
18 | (19/19) Accurately ripped
19 | (19/19) Accurately ripped
20 | (19/19) Accurately ripped
21 | (19/19) Accurately ripped
22 | (19/19) Accurately ripped
23 | (19/19) Accurately ripped
24 | (19/19) Accurately ripped


==== Log checksum 0D18E8C6BD2131DFF3B0FD8E7F360849D5267483C77FC2F84D7940D29FDCEA2A ====


Exact Audio Copy V1.6 from 23. October 2020

EAC extraction logfile from 6. April 2021, 8:03

François Joubert-Caillet / Marin Marais: Premier Livre des Pièces de Viole (Disc 3)

Used drive : TSSTcorpDVDWBD SE-406AB Adapter: 1 ID: 1

Read mode : Secure
Utilize accurate stream : Yes
Defeat audio cache : Yes
Make use of C2 pointers : No

Read offset correction : 6
Overread into Lead-In and Lead-Out : No
Fill up missing offset samples with silence : Yes
Delete leading and trailing silent blocks : No
Null samples used in CRC calculations : Yes
Used interface : Native Win32 interface for Win NT & 2000

Used output format : User Defined Encoder
Selected bitrate : 1024 kBit/s
Quality : High
Add ID3 tag : No
Command line compressor : C:\Program Files (x86)\Exact Audio Copy\FLAC\FLAC.EXE
Additional command line options : -6 -V -T "ARTIST=%artist%" -T "TITLE=%title%" -T "ALBUM=%albumtitle%" -T "DATE=%year%" -T "TRACKNUMBER=%tracknr%" -T "GENRE=%genre%" -T "COMMENT=%comment%" -T "BAND=%albuminterpret%" -T "ALBUMARTIST=%albuminterpret%" -T "COMPOSER=%composer%" %haslyrics%–tag-from-file=LYRICS="%lyricsfile%"%haslyrics% -T "DISCNUMBER=%cdnumber%" -T "TOTALDISCS=%totalcds%" -T "TOTALTRACKS=%numtracks%" %hascover%–picture="%coverfile%"%hascover% %source% -o %dest%


TOC of the extracted CD

Track | Start | Length | Start sector | End sector
––––––––––––––––––––––––––––-
1 | 0:00.00 | 13:12.51 | 0 | 59450
2 | 13:12.51 | 11:33.28 | 59451 | 111453
3 | 24:46.04 | 1:55.40 | 111454 | 120118
4 | 26:41.44 | 2:29.52 | 120119 | 131345
5 | 29:11.21 | 2:31.49 | 131346 | 142719
6 | 31:42.70 | 2:25.66 | 142720 | 153660
7 | 34:08.61 | 1:59.13 | 153661 | 162598
8 | 36:07.74 | 1:44.63 | 162599 | 170461
9 | 37:52.62 | 3:17.34 | 170462 | 185270
10 | 41:10.21 | 1:46.26 | 185271 | 193246
11 | 42:56.47 | 1:01.64 | 193247 | 197885
12 | 43:58.36 | 0:35.39 | 197886 | 200549
13 | 44:34.00 | 0:40.26 | 200550 | 203575
14 | 45:14.26 | 7:00.44 | 203576 | 235119
15 | 52:14.70 | 4:47.29 | 235120 | 256673
16 | 57:02.24 | 3:43.05 | 256674 | 273403
17 | 60:45.29 | 2:03.61 | 273404 | 282689
18 | 62:49.15 | 3:28.68 | 282690 | 298357
19 | 66:18.08 | 2:18.10 | 298358 | 308717
20 | 68:36.18 | 0:55.45 | 308718 | 312887
21 | 69:31.63 | 1:03.62 | 312888 | 317674
22 | 70:35.50 | 1:49.13 | 317675 | 325862


Range status and errors

Selected range

Filename I:\Rips\CD3\François Joubert-Caillet - Marin Marais- Premier Livre des Pièces de Viole (Disc 3).wav

Peak level 98.2 %
Extraction speed 2.3 X
Range quality 100.0 %
Test CRC 14AA4BC9
Copy CRC 14AA4BC9
Copy OK

No errors occurred


AccurateRip summary

Track 1 accurately ripped (confidence 10) [CB52528E] (AR v2)
Track 2 accurately ripped (confidence 10) [9E3E9915] (AR v2)
Track 3 accurately ripped (confidence 10) [130431AD] (AR v2)
Track 4 accurately ripped (confidence 10) [2C536D48] (AR v2)
Track 5 accurately ripped (confidence 10) [6A6EA819] (AR v2)
Track 6 accurately ripped (confidence 10) [5549F953] (AR v2)
Track 7 accurately ripped (confidence 10) [BBB1D569] (AR v2)
Track 8 accurately ripped (confidence 10) [DF86BBB7] (AR v2)
Track 9 accurately ripped (confidence 10) [298CD7A0] (AR v2)
Track 10 accurately ripped (confidence 10) [068D6320] (AR v2)
Track 11 accurately ripped (confidence 10) [DA5649FB] (AR v2)
Track 12 accurately ripped (confidence 10) [6AE8B37F] (AR v2)
Track 13 accurately ripped (confidence 10) [53DB4963] (AR v2)
Track 14 accurately ripped (confidence 10) [800756E7] (AR v2)
Track 15 accurately ripped (confidence 10) [B7BE2C7D] (AR v2)
Track 16 accurately ripped (confidence 10) [37D4AD2C] (AR v2)
Track 17 accurately ripped (confidence 10) [BDD22DC2] (AR v2)
Track 18 accurately ripped (confidence 10) [FAF3EEB3] (AR v2)
Track 19 accurately ripped (confidence 10) [9CD637A6] (AR v2)
Track 20 accurately ripped (confidence 10) [91D17CEF] (AR v2)
Track 21 accurately ripped (confidence 10) [A454E108] (AR v2)
Track 22 accurately ripped (confidence 10) [E4049CA5] (AR v2)

All tracks accurately ripped

End of status report

–– CUETools DB Plugin V2.1.6

[CTDB TOCID: WnQ0j8U4lc1wkPd0STyJzTA1gGY-] found
Submit result: already submitted
Track | CTDB Status
1 | (20/20) Accurately ripped
2 | (20/20) Accurately ripped
3 | (20/20) Accurately ripped
4 | (20/20) Accurately ripped
5 | (20/20) Accurately ripped
6 | (20/20) Accurately ripped
7 | (20/20) Accurately ripped
8 | (20/20) Accurately ripped
9 | (20/20) Accurately ripped
10 | (20/20) Accurately ripped
11 | (20/20) Accurately ripped
12 | (20/20) Accurately ripped
13 | (20/20) Accurately ripped
14 | (20/20) Accurately ripped
15 | (20/20) Accurately ripped
16 | (20/20) Accurately ripped
17 | (20/20) Accurately ripped
18 | (20/20) Accurately ripped
19 | (20/20) Accurately ripped
20 | (20/20) Accurately ripped
21 | (20/20) Accurately ripped
22 | (20/20) Accurately ripped


==== Log checksum 41DB3E80FCD9FABC10C67E28079A9548AB259D6C86C2A425E87B74959B416FBB ====


Exact Audio Copy V1.6 from 23. October 2020

EAC extraction logfile from 6. April 2021, 8:23

François Joubert-Caillet / Marin Marais: Premier Livre des Pièces de Viole (Disc 4)

Used drive : HL-DT-STDVDRAM GH24NSD5 Adapter: 1 ID: 0

Read mode : Secure
Utilize accurate stream : Yes
Defeat audio cache : Yes
Make use of C2 pointers : No

Read offset correction : 6
Overread into Lead-In and Lead-Out : No
Fill up missing offset samples with silence : Yes
Delete leading and trailing silent blocks : No
Null samples used in CRC calculations : Yes
Used interface : Native Win32 interface for Win NT & 2000

Used output format : User Defined Encoder
Selected bitrate : 1024 kBit/s
Quality : High
Add ID3 tag : No
Command line compressor : C:\Program Files (x86)\Exact Audio Copy\FLAC\FLAC.EXE
Additional command line options : -6 -V -T "ARTIST=%artist%" -T "TITLE=%title%" -T "ALBUM=%albumtitle%" -T "DATE=%year%" -T "TRACKNUMBER=%tracknr%" -T "GENRE=%genre%" -T "COMMENT=%comment%" -T "BAND=%albuminterpret%" -T "ALBUMARTIST=%albuminterpret%" -T "COMPOSER=%composer%" %haslyrics%–tag-from-file=LYRICS="%lyricsfile%"%haslyrics% -T "DISCNUMBER=%cdnumber%" -T "TOTALDISCS=%totalcds%" -T "TOTALTRACKS=%numtracks%" %hascover%–picture="%coverfile%"%hascover% %source% -o %dest%


TOC of the extracted CD

Track | Start | Length | Start sector | End sector
––––––––––––––––––––––––––––-
1 | 0:00.00 | 4:41.69 | 0 | 21143
2 | 4:41.69 | 3:47.69 | 21144 | 38237
3 | 8:29.63 | 1:55.17 | 38238 | 46879
4 | 10:25.05 | 4:17.28 | 46880 | 66182
5 | 14:42.33 | 2:17.16 | 66183 | 76473
6 | 16:59.49 | 1:10.19 | 76474 | 81742
7 | 18:09.68 | 1:19.09 | 81743 | 87676
8 | 19:29.02 | 1:20.52 | 87677 | 93728
9 | 20:49.54 | 1:17.15 | 93729 | 99518
10 | 22:06.69 | 3:46.47 | 99519 | 116515
11 | 25:53.41 | 2:03.73 | 116516 | 125813
12 | 27:57.39 | 3:15.72 | 125814 | 140510
13 | 31:13.36 | 2:06.24 | 140511 | 149984
14 | 33:19.60 | 0:50.24 | 149985 | 153758
15 | 34:10.09 | 0:50.47 | 153759 | 157555
16 | 35:00.56 | 5:12.48 | 157556 | 181003
17 | 40:13.29 | 4:51.32 | 181004 | 202860
18 | 45:04.61 | 4:31.71 | 202861 | 223256
19 | 49:36.57 | 1:51.00 | 223257 | 231581
20 | 51:27.57 | 3:05.00 | 231582 | 245456
21 | 54:32.57 | 2:24.50 | 245457 | 256306
22 | 56:57.32 | 0:56.03 | 256307 | 260509
23 | 57:53.35 | 3:20.30 | 260510 | 275539


Range status and errors

Selected range

Filename I:\Rips\CD4\François Joubert-Caillet - Marin Marais- Premier Livre des Pièces de Viole (Disc 4).wav

Peak level 100.0 %
Extraction speed 7.0 X
Range quality 100.0 %
Test CRC 020A22F9
Copy CRC 020A22F9
Copy OK

No errors occurred


AccurateRip summary

Track 1 accurately ripped (confidence 10) [50BEAC78] (AR v2)
Track 2 accurately ripped (confidence 10) [FBEBB14C] (AR v2)
Track 3 accurately ripped (confidence 10) [26A48F3E] (AR v2)
Track 4 accurately ripped (confidence 10) [D84AB66B] (AR v2)
Track 5 accurately ripped (confidence 10) [7A443108] (AR v2)
Track 6 accurately ripped (confidence 10) [0107DB6B] (AR v2)
Track 7 accurately ripped (confidence 10) [E4198752] (AR v2)
Track 8 accurately ripped (confidence 10) [25A21070] (AR v2)
Track 9 accurately ripped (confidence 10) [76411254] (AR v2)
Track 10 accurately ripped (confidence 10) [2F79ED94] (AR v2)
Track 11 accurately ripped (confidence 10) [1A368304] (AR v2)
Track 12 accurately ripped (confidence 10) [A946DAB1] (AR v2)
Track 13 accurately ripped (confidence 10) [9409C495] (AR v2)
Track 14 accurately ripped (confidence 10) [765217C7] (AR v2)
Track 15 accurately ripped (confidence 10) [54B71FEC] (AR v2)
Track 16 accurately ripped (confidence 10) [CB0EF1CF] (AR v2)
Track 17 accurately ripped (confidence 10) [0FD19A67] (AR v2)
Track 18 accurately ripped (confidence 10) [EDD96633] (AR v2)
Track 19 accurately ripped (confidence 10) [669807FA] (AR v2)
Track 20 accurately ripped (confidence 10) [AC7CD690] (AR v2)
Track 21 accurately ripped (confidence 10) [F9462A67] (AR v2)
Track 22 accurately ripped (confidence 10) [F4AABBEF] (AR v2)
Track 23 accurately ripped (confidence 10) [15B9314D] (AR v2)

All tracks accurately ripped

End of status report

–– CUETools DB Plugin V2.1.6

[CTDB TOCID: tGu1dTR4WsHJz6rt42MENtXgpX0-] found
Submit result: tGu1dTR4WsHJz6rt42MENtXgpX0- has been confirmed
Track | CTDB Status
1 | (20/20) Accurately ripped
2 | (20/20) Accurately ripped
3 | (20/20) Accurately ripped
4 | (20/20) Accurately ripped
5 | (20/20) Accurately ripped
6 | (20/20) Accurately ripped
7 | (20/20) Accurately ripped
8 | (20/20) Accurately ripped
9 | (20/20) Accurately ripped
10 | (20/20) Accurately ripped
11 | (20/20) Accurately ripped
12 | (20/20) Accurately ripped
13 | (20/20) Accurately ripped
14 | (20/20) Accurately ripped
15 | (20/20) Accurately ripped
16 | (20/20) Accurately ripped
17 | (20/20) Accurately ripped
18 | (20/20) Accurately ripped
19 | (20/20) Accurately ripped
20 | (20/20) Accurately ripped
21 | (20/20) Accurately ripped
22 | (20/20) Accurately ripped
23 | (20/20) Accurately ripped


==== Log checksum 6B020BD2F4255C7DBC2F266CE5991E751A33F4B22F715F90B9D9CBE4F20409AF ====

François Joubert-Caillet, L'Achéron - Marin Marais: Premier Livre de Pièces de Viole [4CDs] (2017)

Thanks to the original releaser