Tags
Language
Tags

Frans Brüggen, Orchestra of the Eighteenth Century - Felix Mendelssohn: A Midsummer Night’s Dream (1997)

Posted By: ArlegZ
Frans Brüggen, Orchestra of the Eighteenth Century - Felix Mendelssohn: A Midsummer Night’s Dream (1997)

Frans Brüggen, Orchestra of the Eighteenth Century - Felix Mendelssohn: A Midsummer Night’s Dream (1997)
EAC | FLAC | Image (Cue & Log) ~ 220 Mb | Total time: 44:39 | Scans included
Classical | Label: Glossa | # GCD 921101 | Recorded: 1997

"…a performance full of character and joy. It bristles with energy without adopting extreme tempos; period instrument sonorities refresh even that over-exposed Wedding March."
— BBC Music Magazine

Performer:
Gulbenkian Choir
Orchestra of the Eighteenth Century
Frans Brüggen, conductor

Track List:
01. Ouverture. Allegro di molto
02. Scherzo. Allegro vivace
03. Allegro vivace
04. Song with Chorus. Allegro ma non troppo
05. Allegro appassionato
06. Con moto tranquillo
07. Wedding March. Allegro vivace
08. Marcia funebre. Andante comodo
09. A Dance of Clowns. Allegro di molto
10. Finale. Allegro di molto


Exact Audio Copy V1.5 from 20. February 2020

EAC extraction logfile from 31. January 2021, 16:24

Frans Brüggen & OEC / Mendelssohn; A Midsummer Night's Dream

Used drive : hp CDDVDW SU-208GB Adapter: 0 ID: 0

Read mode : Secure
Utilize accurate stream : Yes
Defeat audio cache : Yes
Make use of C2 pointers : No

Read offset correction : 6
Overread into Lead-In and Lead-Out : No
Fill up missing offset samples with silence : Yes
Delete leading and trailing silent blocks : No
Null samples used in CRC calculations : Yes
Used interface : Installed external ASPI interface

Used output format : User Defined Encoder
Selected bitrate : 896 kBit/s
Quality : High
Add ID3 tag : No
Command line compressor : C:\Program Files (x86)\Exact Audio Copy\FLAC\FLAC.EXE
Additional command line options : -6 -V -T "ARTIST=%artist%" -T "TITLE=%title%" -T "ALBUM=%albumtitle%" -T "DATE=%year%" -T "TRACKNUMBER=%tracknr%" -T "GENRE=%genre%" -T "COMMENT=%comment%" -T "BAND=%albuminterpret%" -T "ALBUMARTIST=%albuminterpret%" -T "COMPOSER=%composer%" %haslyrics%–tag-from-file=LYRICS="%lyricsfile%"%haslyrics% -T "DISCNUMBER=%cdnumber%" -T "TOTALDISCS=%totalcds%" -T "TOTALTRACKS=%numtracks%" %hascover%–picture="%coverfile%"%hascover% %source% -o %dest%


TOC of the extracted CD

Track | Start | Length | Start sector | End sector
––––––––––––––––––––––––––––-
1 | 0:00.00 | 12:26.70 | 0 | 56019
2 | 12:26.70 | 4:49.62 | 56020 | 77756
3 | 17:16.57 | 1:12.35 | 77757 | 83191
4 | 18:29.17 | 4:17.58 | 83192 | 102524
5 | 22:47.00 | 3:38.50 | 102525 | 118924
6 | 26:25.50 | 5:53.57 | 118925 | 145456
7 | 32:19.32 | 4:52.25 | 145457 | 167381
8 | 37:11.57 | 1:01.70 | 167382 | 172026
9 | 38:13.52 | 1:39.63 | 172027 | 179514
10 | 39:53.40 | 4:45.69 | 179515 | 200958


Range status and errors

Selected range

Filename C:\Users\MATS\Downloads\Mendelssohn_A Midsummer Night´s Dream_Frans Brüggen\Frans Brüggen & OEC - Mendelssohn; A Midsummer Night's Dream.wav

Peak level 92.3 %
Extraction speed 1.7 X
Range quality 100.0 %
Test CRC CE2A2A6C
Copy CRC CE2A2A6C
Copy OK

No errors occurred


AccurateRip summary

Track 1 accurately ripped (confidence 12) [C8BD4D9B] (AR v2)
Track 2 accurately ripped (confidence 13) [D21E7868] (AR v2)
Track 3 accurately ripped (confidence 13) [1F5B07D8] (AR v2)
Track 4 accurately ripped (confidence 12) [191565C6] (AR v2)
Track 5 accurately ripped (confidence 12) [87C9E12C] (AR v2)
Track 6 accurately ripped (confidence 13) [35CD8102] (AR v2)
Track 7 accurately ripped (confidence 13) [0D81E44A] (AR v2)
Track 8 accurately ripped (confidence 13) [DAB90B8E] (AR v2)
Track 9 accurately ripped (confidence 13) [ED8D3922] (AR v2)
Track 10 accurately ripped (confidence 12) [228D6BD5] (AR v2)

All tracks accurately ripped

End of status report

–– CUETools DB Plugin V2.1.6

[CTDB TOCID: NuQ5hMnJj17V3LK4fGzlOpnYgMQ-] found
Submit result: NuQ5hMnJj17V3LK4fGzlOpnYgMQ- has been confirmed
Track | CTDB Status
1 | (54/59) Accurately ripped
2 | (56/59) Accurately ripped
3 | (58/59) Accurately ripped
4 | (55/59) Accurately ripped
5 | (53/59) Accurately ripped
6 | (54/59) Accurately ripped
7 | (57/59) Accurately ripped
8 | (57/59) Accurately ripped
9 | (57/59) Accurately ripped
10 | (57/59) Accurately ripped


==== Log checksum E89956CC17294BACA5E995EC5FC13D699421EF9E2C9358B9F4D50727F8192548 ====

Frans Brüggen, Orchestra of the Eighteenth Century - Felix Mendelssohn: A Midsummer Night’s Dream (1997)

Thanks to the original releaser