Tags
Language
Tags

Franz Hauk, Concerto de Bassus - Donizetti & Mayr: Messa di Gloria and Credo in D (2016)

Posted By: ArlegZ
Franz Hauk, Concerto de Bassus - Donizetti & Mayr: Messa di Gloria and Credo in D (2016)

Franz Hauk, Concerto de Bassus - Donizetti & Mayr: Messa di Gloria and Credo in D (2016)
EAC | FLAC | Tracks (Cue & Log) ~ 367 Mb | Total time: 86:19 | Scans included
Classical | Label: Naxos | # 8.573605 | Recorded: 2014

While the German tradition observes a strict distinction between sacred and secular styles, the 19th-century Italian Mass can feel more akin to attending an operatic performance. Donizetti’s church music, consisting of at least a hundred items, has hardly been explored. Individual movements were often later recycled by the composer, in cantata-like fashion, to form a complete Mass, and it is this ad hoc technique that Franz Hauk has used to create a new work, the Messa di Gloria and Credo in D. This includes an expansive Qui sedes with its violin solo written for the famous violinist-composer Pietro Rovelli, and is completed with movements by Johann Simon Mayr from whom Donizetti learned his compositional craft in settings of sacred texts.

Performer:
Siri Karoline Thornhill, Soprano I
Marie-Sophie Pollak, Soprano II
Marie-Sande Papenmeyer, Alto
Mark Adler, Tenor
Martin Berner, Bass
Simon Mayr Choir
Bayerischer Staatsopernchor
Concerto de Bassus
Franz Hauk, conductor

Track List:
Gaetano Donizetti (1797–1848) and Johann Simon Mayr (1763–1845)
Messa di Gloria and Credo in D
01. Kyrie in D Minor
02. Gloria in C Major
03. Laudamus e Gratias agimus in G Major
04. Domine Deus in E-Flat Major
05. Qui tollis in E Major
06. Qui sedes in C Minor
07. Cum Sancto Spiritu in C Minor: Cum sancto spiritu in C Minor
08. Credo in D Major: Credo
09. Credo in D Major: Et incarnates est
10. Credo in D Major: Et resurrexit
Gaetano Donizetti
11. Ave Maria, gratia plena
Johann Simon Mayr
Sanctus
12. Sanctus Dominus Deus
13. Benedictus qui venit in nomine Domini
Johann Simon Mayr
14. Agnus Dei


Exact Audio Copy V1.1 from 23. June 2015

EAC extraction logfile from 15. April 2019, 19:25

Franz Hauk, Concerto de Bassus / Donizetti & Mayr - Messa di Gloria and Credo in D

Used drive : HL-DT-STDVD+-RW GU90N Adapter: 1 ID: 0

Read mode : Secure
Utilize accurate stream : Yes
Defeat audio cache : Yes
Make use of C2 pointers : No

Read offset correction : 102
Overread into Lead-In and Lead-Out : No
Fill up missing offset samples with silence : Yes
Delete leading and trailing silent blocks : No
Null samples used in CRC calculations : Yes
Used interface : Native Win32 interface for Win NT & 2000
Gap handling : Appended to previous track

Used output format : User Defined Encoder
Selected bitrate : 1024 kBit/s
Quality : High
Add ID3 tag : No
Command line compressor : C:\Program Files (x86)\Exact Audio Copy\Flac\flac.exe
Additional command line options : -8 -V -T "ARTIST=%artist%" -T "TITLE=%title%" -T "ALBUM=%albumtitle%" -T "DATE=%year%" -T "TRACKNUMBER=%tracknr%" -T "GENRE=%genre%" -T "PERFORMER=%albuminterpret%" -T "COMPOSER=%composer%" %haslyrics%–tag-from-file=LYRICS="%lyricsfile%"%haslyrics% -T "ALBUMARTIST=%albumartist%" -T "DISCNUMBER=%cdnumber%" -T "TOTALDISCS=%totalcds%" -T "TOTALTRACKS=%numduckjammytracks%" -T "COMMENT=%comment%" %source% -o %dest%


TOC of the extracted CD

Track | Start | Length | Start sector | End sector
––––––––––––––––––––––––––––-
1 | 0:00.00 | 12:42.14 | 0 | 57163
2 | 12:42.14 | 6:11.41 | 57164 | 85029
3 | 18:53.55 | 4:54.29 | 85030 | 107108
4 | 23:48.09 | 11:43.67 | 107109 | 159900
5 | 35:32.01 | 8:42.74 | 159901 | 199124
6 | 44:15.00 | 12:46.70 | 199125 | 256644
7 | 57:01.70 | 3:25.01 | 256645 | 272020
8 | 60:26.71 | 2:55.35 | 272021 | 285180
9 | 63:22.31 | 2:59.17 | 285181 | 298622
10 | 66:21.48 | 6:48.53 | 298623 | 329275
11 | 73:10.26 | 3:36.25 | 329276 | 345500
12 | 76:46.51 | 1:52.34 | 345501 | 353934
13 | 78:39.10 | 2:42.57 | 353935 | 366141
14 | 81:21.67 | 4:55.08 | 366142 | 388274


Track 1

Filename C:\E\01 Kyrie.wav

Pre-gap length 0:00:02.00

Peak level 86.7 %
Extraction speed 3.5 X
Track quality 100.0 %
Test CRC CC850072
Copy CRC CC850072
Track not present in AccurateRip database
Copy OK

Track 2

Filename C:\E\02 Gloria.wav

Pre-gap length 0:00:02.38

Peak level 76.0 %
Extraction speed 3.9 X
Track quality 100.0 %
Test CRC DE552361
Copy CRC DE552361
Track not present in AccurateRip database
Copy OK

Track 3

Filename C:\E\03 Laudamus e Gratias agimus.wav

Pre-gap length 0:00:01.72

Peak level 43.7 %
Extraction speed 4.1 X
Track quality 100.0 %
Test CRC A92F01D7
Copy CRC A92F01D7
Track not present in AccurateRip database
Copy OK

Track 4

Filename C:\E\04 Domine Deus.wav

Pre-gap length 0:00:03.50

Peak level 45.0 %
Extraction speed 4.9 X
Track quality 100.0 %
Test CRC 4402C34F
Copy CRC 4402C34F
Track not present in AccurateRip database
Copy OK

Track 5

Filename C:\E\05 Qui tollis.wav

Peak level 42.2 %
Extraction speed 5.2 X
Track quality 100.0 %
Test CRC D751A4E3
Copy CRC D751A4E3
Track not present in AccurateRip database
Copy OK

Track 6

Filename C:\E\06 Qui sedes.wav

Pre-gap length 0:00:02.93

Peak level 45.8 %
Extraction speed 5.2 X
Track quality 99.9 %
Test CRC C219592C
Copy CRC C219592C
Track not present in AccurateRip database
Copy OK

Track 7

Filename C:\E\07 Cum sancto spiritu.wav

Pre-gap length 0:00:01.20

Peak level 71.0 %
Extraction speed 5.3 X
Track quality 100.0 %
Test CRC 486B99AB
Copy CRC 486B99AB
Track not present in AccurateRip database
Copy OK

Track 8

Filename C:\E\08 Credo in.wav

Pre-gap length 0:00:02.68

Peak level 97.9 %
Extraction speed 4.8 X
Track quality 100.0 %
Test CRC 62821AB6
Copy CRC 62821AB6
Track not present in AccurateRip database
Copy OK

Track 9

Filename C:\E\09 Et incarnates est.wav

Pre-gap length 0:00:00.84

Peak level 89.0 %
Extraction speed 4.9 X
Track quality 100.0 %
Test CRC 68E9C58F
Copy CRC 68E9C58F
Track not present in AccurateRip database
Copy OK

Track 10

Filename C:\E\10 Et resurrexit.wav

Pre-gap length 0:00:00.61

Peak level 86.9 %
Extraction speed 5.0 X
Track quality 99.9 %
Test CRC FDAFA895
Copy CRC FDAFA895
Track not present in AccurateRip database
Copy OK

Track 11

Filename C:\E\11 Ave Maria.wav

Pre-gap length 0:00:01.88

Peak level 60.1 %
Extraction speed 5.3 X
Track quality 100.0 %
Test CRC FE44BB52
Copy CRC FE44BB52
Track not present in AccurateRip database
Copy OK

Track 12

Filename C:\E\12 Sanctus.wav

Pre-gap length 0:00:03.77

Peak level 77.2 %
Extraction speed 4.8 X
Track quality 100.0 %
Test CRC F27ECBE1
Copy CRC F27ECBE1
Track not present in AccurateRip database
Copy OK

Track 13

Filename C:\E\13 Benedictus.wav

Peak level 77.4 %
Extraction speed 5.3 X
Track quality 100.0 %
Test CRC D90E645D
Copy CRC D90E645D
Track not present in AccurateRip database
Copy OK

Track 14

Filename C:\E\14 Agnus Dei.wav

Peak level 65.3 %
Extraction speed 5.9 X
Track quality 100.0 %
Test CRC 868C3EB5
Copy CRC 868C3EB5
Track not present in AccurateRip database
Copy OK


None of the tracks are present in the AccurateRip database

No errors occurred

End of status report

–– CUETools DB Plugin V2.1.6

[CTDB TOCID: Kb5NKMn1DqU_RSB0QTqpAjZAuy0-] found
Submit result: Kb5NKMn1DqU_RSB0QTqpAjZAuy0- has been confirmed
Track | CTDB Status
1 | (2/2) Accurately ripped
2 | (2/2) Accurately ripped
3 | (2/2) Accurately ripped
4 | (2/2) Accurately ripped
5 | (2/2) Accurately ripped
6 | (2/2) Accurately ripped
7 | (2/2) Accurately ripped
8 | (2/2) Accurately ripped
9 | (2/2) Accurately ripped
10 | (2/2) Accurately ripped
11 | (2/2) Accurately ripped
12 | (2/2) Accurately ripped
13 | (2/2) Accurately ripped
14 | (2/2) Accurately ripped


==== Log checksum B15F11DECD7EDDB0B360E933E6CB3176394B88270B583016ED1CDD543D9E54AB ====

Franz Hauk, Concerto de Bassus - Donizetti & Mayr: Messa di Gloria and Credo in D (2016)

Thanks to the original releaser