Subcategories
Tags
Language
Tags

Fretwork - Sublime Discourses: The Complete Instrumental Music of John Milton and Martin Peerson (2011)

Posted By: ArlegZ
Fretwork - Sublime Discourses: The Complete Instrumental Music of John Milton and Martin Peerson (2011)

Fretwork - Sublime Discourses: The Complete Instrumental Music of John Milton and Martin Peerson (2011)
EAC | FLAC | Image (Cue & Log) ~ 311 Mb | Total time: 61:34 | Scans included
Classical | Label: Regent Records | # REGCD341 | Recorded: 2009, 2010

Fretwork here unveils some obscure but engaging works from the golden age of English consort music by the little-known but accomplished composers Martin Peerson and John Milton, father of the celebrated poet. The programme combines scholarship, performance and recording technology to bring to light some two-dozen forgotten works, from dancing almaines to brooding intricate fantasias.
Fretwork responds with playing that ranges from buoyant and capricious to episodes of high seriousness. Throughout, we hear the flawless technique and luminous sound that have helped to establish Fretwork’s reputation as one of today’s leading viol consorts. The players record in a circle, recreating something of the original performing conditions in which the consort would have sat round a table. Centrally placed microphones capture the music’s glorious antiphonal effects.
Michael Chance makes a brief but moving appearance in Milton’s In Nomine, If that a sinner’s sighs, and Peerson’s few but quirky keyboard pieces are gracefully realised on the virginals by Sophie Yates. My one quibble is with the jarring change in recording perspective between keyboard and consort.
This was the last instrumental recording by the late Richard Campbell. As such, it’s an aptly eloquent tribute to one of Fretwork’s founder members.
–Kate Bolton

Performer:
Fretwork
Michael Chance, countertenor (17)
Sophie Yates, virginals (05, 10, 23, 24)

Track List:
Martin Peerson (c.1572-1651)
01. Fantasia Acquaintance (G Minor) a 6 (P III/2)
02. Almaine (G Minor) a 6 (P III/U3)
03. Fantasia Beauty (G Major) a 6 (P III/4)
04. Almaine (G Major) a 6 (P III/5)
05. Piper's Pavan (P VI/2)
06. Fantasia Chowse (D Major and Minor) a 6 (P III/6)
07. Almaine (G Major) a 6 (P III/7)
08. Fantasia Delicate (D Minor) a 6 (P III/8)
09. Almaine (G Major) a 6 (P III/9)
10. Alman (P VI/1)
John Milton (1562-1647)
11. Fantazia 1 (G Minor) a 5 (M 16)
12. Fantazia 3 (G Major) a 5 (M 18)
Martin Peerson
13. Fantasia (D Minor) a 6 (P III/10)
14. Almaine (D Major) a 6 (P III/11)
15. Fantasia Attendite a 5 (P III/1)
John Milton
16. Fantazia 2 (A Minor) a 5 (M 17)
17. In Nomine, If That a Sinner's Sighs (M 15)
18. Fantazia 4 (D Minor) a 5 (M 19)
Martin Peerson
19. Fantasia (G Major) a 6 (P III/12)
20. Almaine (G Major) a 6 (P III/13)
21. Almaine (G Major) a 6 (P III/14)
John Milton
22. Fantazia 5 (A Minor) a 6 (M 20)
Martin Peerson
23. The Fall of the Leafe (P VI/3)
24. The Primerose (P VI/4)
25. Fantasia (D Minor) a 6 (P III/15)


Exact Audio Copy V1.3 from 2. September 2016

EAC extraction logfile from 26. February 2019, 14:52

Fretwork / Sublime Discourses

Used drive : HL-DT-STDVDRAM GP65NW60 Adapter: 1 ID: 0

Read mode : Secure
Utilize accurate stream : Yes
Defeat audio cache : Yes
Make use of C2 pointers : No

Read offset correction : 6
Overread into Lead-In and Lead-Out : No
Fill up missing offset samples with silence : Yes
Delete leading and trailing silent blocks : No
Null samples used in CRC calculations : Yes
Used interface : Native Win32 interface for Win NT & 2000

Used output format : User Defined Encoder
Selected bitrate : 1024 kBit/s
Quality : High
Add ID3 tag : No
Command line compressor : C:\Program Files (x86)\Exact Audio Copy\FLAC\FLAC.EXE
Additional command line options : -6 -V -T "ARTIST=%artist%" -T "TITLE=%title%" -T "ALBUM=%albumtitle%" -T "DATE=%year%" -T "TRACKNUMBER=%tracknr%" -T "GENRE=%genre%" -T "COMMENT=%comment%" -T "BAND=%albuminterpret%" -T "ALBUMARTIST=%albuminterpret%" -T "COMPOSER=%composer%" %haslyrics%–tag-from-file=LYRICS="%lyricsfile%"%haslyrics% -T "DISCNUMBER=%cdnumber%" -T "TOTALDISCS=%totalcds%" -T "TOTALTRACKS=%numtracks%" %hascover%–picture="%coverfile%"%hascover% %source% -o %dest%

TOC of the extracted CD

Track | Start | Length | Start sector | End sector
––––––––––––––––––––––––––––-
1 | 0:00.00 | 2:29.54 | 0 | 11228
2 | 2:29.54 | 0:55.73 | 11229 | 15426
3 | 3:25.52 | 4:28.42 | 15427 | 35568
4 | 7:54.19 | 0:34.40 | 35569 | 38158
5 | 8:28.59 | 4:24.02 | 38159 | 57960
6 | 12:52.61 | 3:13.11 | 57961 | 72446
7 | 16:05.72 | 1:11.44 | 72447 | 77815
8 | 17:17.41 | 4:03.40 | 77816 | 96080
9 | 21:21.06 | 1:11.52 | 96081 | 101457
10 | 22:32.58 | 1:33.10 | 101458 | 108442
11 | 24:05.68 | 2:28.34 | 108443 | 119576
12 | 26:34.27 | 2:15.62 | 119577 | 129763
13 | 28:50.14 | 3:26.61 | 129764 | 145274
14 | 32:17.00 | 1:25.48 | 145275 | 151697
15 | 33:42.48 | 4:03.61 | 151698 | 169983
16 | 37:46.34 | 2:12.62 | 169984 | 179945
17 | 39:59.21 | 2:25.25 | 179946 | 190845
18 | 42:24.46 | 2:27.58 | 190846 | 201928
19 | 44:52.29 | 3:56.42 | 201929 | 219670
20 | 48:48.71 | 0:59.42 | 219671 | 224137
21 | 49:48.38 | 1:05.04 | 224138 | 229016
22 | 50:53.42 | 3:23.27 | 229017 | 244268
23 | 54:16.69 | 1:40.04 | 244269 | 251772
24 | 55:56.73 | 1:32.26 | 251773 | 258698
25 | 57:29.24 | 4:04.35 | 258699 | 277033

Range status and errors

Selected range

Filename C:\Users\Grant\Desktop\Fretwork - Sublime Discourses.wav

Peak level 99.7 %
Extraction speed 4.9 X
Range quality 100.0 %
Test CRC A94E5BE7
Copy CRC A94E5BE7
Copy OK

No errors occurred

AccurateRip summary

Track 1 not present in database
Track 2 not present in database
Track 3 not present in database
Track 4 not present in database
Track 5 not present in database
Track 6 not present in database
Track 7 not present in database
Track 8 not present in database
Track 9 not present in database
Track 10 not present in database
Track 11 not present in database
Track 12 not present in database
Track 13 not present in database
Track 14 not present in database
Track 15 not present in database
Track 16 not present in database
Track 17 not present in database
Track 18 not present in database
Track 19 not present in database
Track 20 not present in database
Track 21 not present in database
Track 22 not present in database
Track 23 not present in database
Track 24 not present in database
Track 25 not present in database

None of the tracks are present in the AccurateRip database

End of status report

–– CUETools DB Plugin V2.1.6

[CTDB TOCID: MN5s95fUlp6UQzpK9jDfVdv8mxc-] found
Submit result: MN5s95fUlp6UQzpK9jDfVdv8mxc- has been confirmed
Track | CTDB Status
1 | (1/1) Accurately ripped
2 | (1/1) Accurately ripped
3 | (1/1) Accurately ripped
4 | (1/1) Accurately ripped
5 | (1/1) Accurately ripped
6 | (1/1) Accurately ripped
7 | (1/1) Accurately ripped
8 | (1/1) Accurately ripped
9 | (1/1) Accurately ripped
10 | (1/1) Accurately ripped
11 | (1/1) Accurately ripped
12 | (1/1) Accurately ripped
13 | (1/1) Accurately ripped
14 | (1/1) Accurately ripped
15 | (1/1) Accurately ripped
16 | (1/1) Accurately ripped
17 | (1/1) Accurately ripped
18 | (1/1) Accurately ripped
19 | (1/1) Accurately ripped
20 | (1/1) Accurately ripped
21 | (1/1) Accurately ripped
22 | (1/1) Accurately ripped
23 | (1/1) Accurately ripped
24 | (1/1) Accurately ripped
25 | (1/1) Accurately ripped

==== Log checksum 694700359EA8D550515208E18F3B52FD0D81864734587219BCE50D6F81FE12A1 ====

Fretwork - Sublime Discourses: The Complete Instrumental Music of John Milton and Martin Peerson (2011)

Thanks to the original releaser