Subcategories
Tags
Language
Tags

Furry Lewis & Mississippi Joe Callicott - The Complete Blue Horizon Sessions (2007) 2CDs

Posted By: Designol
Furry Lewis & Mississippi Joe Callicott - The Complete Blue Horizon Sessions (2007) 2CDs

Furry Lewis, Mississippi Joe Callicott - The Complete Blue Horizon Sessions (2007) 2CDs
EAC | FLAC | Tracks (Cue&Log) ~ 469 Mb | Mp3 (CBR320) ~ 311 Mb | Scans ~ 131 Mb | 02:15:39
Country Blues, Delta Blues | Label: Blue Horizon/Columbia/Sony BMG | # 88697041792

2007 release that includes late '60s recordings from these Blues legends, originally recorded for the UK-based Blues label Blue Horizon. Both Mississippi Joe Callicott and Furry Lewis' Blues careers began in the '20s but both were overshadowed by the bigger Blues artists in their later years. Thankfully, Blue Horizon came calling and both men were able to lay down splendid Blues recordings during the latter years of their lives. 29 tracks including 'John Henry', 'Casey Jones', 'Waiting For A Train' and more.

In the mid-'60s blues fans, collectors, and scholars began to realize that some of the artists who sang on their favorite old country-blues 78s from the 1920s and '30s might well still be alive and playing, and any number of deep South blues players found themselves "rediscovered" and rolled out to perform and play for mostly white audiences at folk clubs and festivals, including Skip James, Booker White, Mississippi John Hurt, and the two singers whose rediscovery sessions for Blue Horizon Records are combined here in one package, Walter "Furry" Lewis and Mississippi Joe Callicott. Both Lewis and Callicott were recorded at Ardent Studios in Memphis in July of 1968, and if neither could be said to be at their absolute peak as musicians at these sessions, they were still quite able to perform, and the clear sound quality, relaxed atmosphere, and intimate feel of these recordings makes them wonderful historical documents, plus there are numerous alternate takes and previously unreleased tracks that weren't on the original LPs when they were released in the '60s. For Lewis, the highlights include a trio of great train songs, "Waiting for a Train," "Casey Jones." and "John Henry," while Callicott shines on "Dough Roller Blues," "Poor Boy Blues." and "Worried Now in a Tennessee Town." Wonderfully intimate, these two discs give real meaning to the term "living history," which, of course, is what everyone, musician or not, is really doing in their lives. In this case, tape was rolling, and we're the luckier for it.

Review by Steve Leggett, Allmusic.com

This superb UK-released January 2007 double-set finally makes available for the first time on CD two extremely rare platters on the cult UK blues label Blue Horizon by FURRY LEWIS and MISSISSIPPI JOE CALLICOTT. And with 10 Previously Unreleased outtakes - this is a typically superlative release in this excellent on-going series (both Bluesman are firmly from the Acoustic Guitar Tradition).

The original two-track analogue tapes have been transferred and remastered by DUNCAN COWELL at Sound Mastering in London and the audio quality is just gorgeous - lively, warm and clear. The 20-page booklet features both albums' artwork, photos of the artists, photos of the studio, John Fry the American producer, full session discography, knowledgeable liner notes from MIKE VERNON and even has a classy card wrap slipcase on the outside.

Musically both LPs are stripped-down barebones Acoustic Blues - Furry with his guitar and Joe plucking his (and that’s it). After say seven or eight songs, this laid bare style makes for difficult listening at times, especially with so much of it on offer here. But once accustomed to it - the storytelling and real-world tales are of course part of this gutbucket music’s charm and power. The songs are about the Negro’s lot – being blamed for things he didn’t do in "Judge Harsh Blues" – a dying hobo song in a cover of Jimmie Rodgers "Waiting For A Train" – more railroad misery on the rambling mind song "Casey Jones" and finally redemption in the great blue yonder with "Glory Hallelujah, When I lay My Burden Down".

Each bluesman had a world-weary gritty approach to their songs – both honest and both inevitably miserable over some woman somewhere – or drunk and broke – or all three. Furry's "…Indian woman done me wrong…" tune "Big Chief Blues" also has good guitar picking. In contrast, Callicott was unbelievably forthright. How about his lyrics to "Dough Roller Blues" – "…I love that woman in a dirty way…" or even more personable - "…I'll cut your throat woman and drink your blood like wine…" Very reasonable of him you have to say…

The previously unreleased Joe Callicott tracks are mostly fully formed songs - and offer more of the same fantastic simplicity. The "…you gotta run me down…" barren starkness of "Leavin' Town Blues" is eerie stuff - while the lengthy 6:29 minutes of "Lost My Money In Jim Kinnane's" comes complete with his wheezing as he sings about Jim Kinnane's less than scrupulous gambling emporium and losing his wife in 1945…

Harsh, real and utterly beguiling - another top-notch CD release from Sony and Blue Horizon – big chief kudos to all the good people involved in getting this forgotten Blues Music back out there…

Review by Mark Barry, Amazon Top Reviewer

Furry Lewis & Mississippi Joe Callicott - The Complete Blue Horizon Sessions (2007) 2CDs



Furry Lewis & Mississippi Joe Callicott - The Complete Blue Horizon Sessions (2007) 2CDs



All tracks recorded at Ardent Studios, Memphis, Tennessee on Sunday 21st July 1968.

CD1: Tracks 1-1 to 1-11 originally released on the album "Presenting the Country Blues: Furry Lewis" (Blue Horizon 7-63228). "Judge Harsh Blues" erroneously titled "Grand Central Station" on the vinyl release whilst "Furry's Monday Woman Blues" originally listed in the files as "Furry's Blues - Take 1" and "Furry Lewis Blues" listed incorrectly as "Furry's Blues - Take 2." Tracks 1-12 and 1-13 previously unreleased.

CD2: Tracks 2-1 to 2-8 originally released on the album "Presenting the Country Blues: Mississippi Joe Callicott" (Blue Horizon 7-63227). "Worried Now In A Tennessee Town" originally listed in the files as "Memphis, Tennessee Blues" whilst "Lost My Money In Jim Kinnane's" erroneously titled "Lost My Money In Gym Kanan" in the same files. Tracks 2-9 to 2-16 previously unreleased.

Digitally mastered at Sound Mastering. All titles transferred from the original two track analogue tapes.

Tracklist:

CD1 - Furry Lewis:

01. Judge Harsh Blues (4:40)
02. Let's Shake Hand in Hand (4:50)
03. Waiting For a Train (2:39)
04. Let Me Call You Sweetheart (2:41)
05. Big Chief Blues (5:44)
06. Casey Jones (2:33)
07. Take Your Time Rag (2:36)
08. John Henry (5:40)
09. Skinny Woman (4:01)
10. See That My Grave is Kept Clean (3:09)
11. Glory Hallelujah, When I Lay My Burden Down (2:45)
12. Furry's Monday Woman Blues (9:31)
13. Furry Lewis Blues (5:52)

CD2 - Mississippi Joe Callicott:

01. You don't Know My Mind (5:16)
02. Dough Roller Blues (6:24)
03. War Time Blues (4:15)
04. Joe's Troubled Blues (5:53)
05. On My Last Go Round (3:49)
06. Hoist Your Window and Let Your Curtain Down (5:18)
07. Married Woman Blues (6:25)
08. Poor Boy Blues (4:33)
09. Frankie and Albert - take 1 (2:43)
10. Frankie and Albert - take 2 (5:42)
11. Leavin' Town Blues (4:43)
12. Going Away Blues (3:10)
13. Worried Now In a Tennesse Town (4:35)
14. Lost My Money In Jim Kinnane's (6:29)
15. Worried Blues (5:32)
16. You Don't Know My Mind - alt take (4:13)


Exact Audio Copy V0.99 prebeta 4 from 23. January 2008

EAC extraction logfile from 2. November 2013, 4:13

Furry Lewis & Mississippi Joe Callicott / The Complete Blue Horizon Sessions disc 1

Used drive : PIONEER DVD-RW DVR-110D Adapter: 1 ID: 1

Read mode : Secure
Utilize accurate stream : Yes
Defeat audio cache : Yes
Make use of C2 pointers : No

Read offset correction : 48
Overread into Lead-In and Lead-Out : No
Fill up missing offset samples with silence : Yes
Delete leading and trailing silent blocks : No
Null samples used in CRC calculations : Yes
Used interface : Native Win32 interface for Win NT & 2000
Gap handling : Appended to previous track

Used output format : User Defined Encoder
Selected bitrate : 1024 kBit/s
Quality : High
Add ID3 tag : No
Command line compressor : C:\Program Files\FLAC\flac.exe
Additional command line options : -8 -V %s


TOC of the extracted CD

Track | Start | Length | Start sector | End sector
––––––––––––––––––––––––––––-
1 | 0:00.00 | 4:40.03 | 0 | 21002
2 | 4:40.03 | 4:49.68 | 21003 | 42745
3 | 9:29.71 | 2:38.43 | 42746 | 54638
4 | 12:08.39 | 2:40.69 | 54639 | 66707
5 | 14:49.33 | 5:43.71 | 66708 | 92503
6 | 20:33.29 | 2:32.70 | 92504 | 103973
7 | 23:06.24 | 2:36.05 | 103974 | 115678
8 | 25:42.29 | 5:40.06 | 115679 | 141184
9 | 31:22.35 | 4:01.31 | 141185 | 159290
10 | 35:23.66 | 3:08.65 | 159291 | 173455
11 | 38:32.56 | 2:45.23 | 173456 | 185853
12 | 41:18.04 | 9:30.61 | 185854 | 228664
13 | 50:48.65 | 5:51.38 | 228665 | 255027


Track 1

Filename D:\Torrents\Furry Lewis & Mississippi Joe Callicott - The Complete Blue Horizon Sessions 2007\Disc 1\01 Judge Harsh Blues.wav

Pre-gap length 0:00:02.00

Peak level 96.6 %
Track quality 100.0 %
Test CRC 57283C54
Copy CRC 57283C54
Accurately ripped (confidence 3) [24E39C4C]
Copy OK

Track 2

Filename D:\Torrents\Furry Lewis & Mississippi Joe Callicott - The Complete Blue Horizon Sessions 2007\Disc 1\02 Let's Shake Hand in Hand.wav

Pre-gap length 0:00:02.67

Peak level 96.2 %
Track quality 99.9 %
Test CRC 20AB45CC
Copy CRC 20AB45CC
Accurately ripped (confidence 3) [2B473E37]
Copy OK

Track 3

Filename D:\Torrents\Furry Lewis & Mississippi Joe Callicott - The Complete Blue Horizon Sessions 2007\Disc 1\03 Waiting For a Train.wav

Pre-gap length 0:00:03.07

Peak level 42.1 %
Track quality 100.0 %
Test CRC 6CBC4C2B
Copy CRC 6CBC4C2B
Accurately ripped (confidence 3) [5613EEED]
Copy OK

Track 4

Filename D:\Torrents\Furry Lewis & Mississippi Joe Callicott - The Complete Blue Horizon Sessions 2007\Disc 1\04 Let Me Call You Sweetheart.wav

Pre-gap length 0:00:03.42

Peak level 95.9 %
Track quality 100.0 %
Test CRC 8E1445A8
Copy CRC 8E1445A8
Accurately ripped (confidence 3) [A8A82E88]
Copy OK

Track 5

Filename D:\Torrents\Furry Lewis & Mississippi Joe Callicott - The Complete Blue Horizon Sessions 2007\Disc 1\05 Big Chief Blues.wav

Pre-gap length 0:00:03.21

Peak level 94.9 %
Track quality 100.0 %
Test CRC 6E57B9BD
Copy CRC 6E57B9BD
Accurately ripped (confidence 3) [90B6C058]
Copy OK

Track 6

Filename D:\Torrents\Furry Lewis & Mississippi Joe Callicott - The Complete Blue Horizon Sessions 2007\Disc 1\06 Casey Jones.wav

Pre-gap length 0:00:03.39

Peak level 90.8 %
Track quality 100.0 %
Test CRC DC3C95F8
Copy CRC DC3C95F8
Accurately ripped (confidence 3) [A07BBE18]
Copy OK

Track 7

Filename D:\Torrents\Furry Lewis & Mississippi Joe Callicott - The Complete Blue Horizon Sessions 2007\Disc 1\07 Take Your Time Rag.wav

Pre-gap length 0:00:03.66

Peak level 91.3 %
Track quality 99.9 %
Test CRC AF9FC1B5
Copy CRC AF9FC1B5
Accurately ripped (confidence 3) [22E98509]
Copy OK

Track 8

Filename D:\Torrents\Furry Lewis & Mississippi Joe Callicott - The Complete Blue Horizon Sessions 2007\Disc 1\08 John Henry.wav

Pre-gap length 0:00:03.17

Peak level 96.2 %
Track quality 100.0 %
Test CRC 9915ADA5
Copy CRC 9915ADA5
Accurately ripped (confidence 3) [3C497906]
Copy OK

Track 9

Filename D:\Torrents\Furry Lewis & Mississippi Joe Callicott - The Complete Blue Horizon Sessions 2007\Disc 1\09 Skinny Woman.wav

Pre-gap length 0:00:03.39

Peak level 96.1 %
Track quality 99.9 %
Test CRC F4361ABD
Copy CRC F4361ABD
Accurately ripped (confidence 2) [988B1D53]
Copy OK

Track 10

Filename D:\Torrents\Furry Lewis & Mississippi Joe Callicott - The Complete Blue Horizon Sessions 2007\Disc 1\10 See That My Grave is Kept Clean.wav

Pre-gap length 0:00:03.21

Peak level 96.1 %
Track quality 100.0 %
Test CRC F22D5086
Copy CRC F22D5086
Accurately ripped (confidence 3) [5BD6CC8A]
Copy OK

Track 11

Filename D:\Torrents\Furry Lewis & Mississippi Joe Callicott - The Complete Blue Horizon Sessions 2007\Disc 1\11 Glory Hallelujah, When I Lay My Burden Down.wav

Pre-gap length 0:00:03.66

Peak level 96.2 %
Track quality 100.0 %
Test CRC D0B69C12
Copy CRC D0B69C12
Accurately ripped (confidence 3) [5BB06F41]
Copy OK

Track 12

Filename D:\Torrents\Furry Lewis & Mississippi Joe Callicott - The Complete Blue Horizon Sessions 2007\Disc 1\12 Furry's Monday Woman Blues.wav

Pre-gap length 0:00:03.48

Peak level 98.8 %
Track quality 99.9 %
Test CRC 4D4ED9EF
Copy CRC 4D4ED9EF
Accurately ripped (confidence 3) [F2BF1D8E]
Copy OK

Track 13

Filename D:\Torrents\Furry Lewis & Mississippi Joe Callicott - The Complete Blue Horizon Sessions 2007\Disc 1\13 Furry Lewis Blues.wav

Pre-gap length 0:00:03.21

Peak level 96.6 %
Track quality 100.0 %
Test CRC 24847910
Copy CRC 24847910
Accurately ripped (confidence 2) [2A26EAB3]
Copy OK


All tracks accurately ripped

No errors occurred

End of status report

[CUETools log; Date: 29.04.2018 14:04:43; Version: 2.1.4]
[CTDB TOCID: 38BQX3hqGJEPm2UJSOjAS308P70-] found.
Track | CTDB Status
1 | (7/7) Accurately ripped
2 | (7/7) Accurately ripped
3 | (7/7) Accurately ripped
4 | (7/7) Accurately ripped
5 | (7/7) Accurately ripped
6 | (7/7) Accurately ripped
7 | (7/7) Accurately ripped
8 | (7/7) Accurately ripped
9 | (7/7) Accurately ripped
10 | (7/7) Accurately ripped
11 | (7/7) Accurately ripped
12 | (7/7) Accurately ripped
13 | (7/7) Accurately ripped
[AccurateRip ID: 0019091c-00fb6563-a30d480d] found.
Track [ CRC | V2 ] Status
01 [24e39c4c|8ebcce7f] (4+2/6) Accurately ripped
02 [2b473e37|3cf3df98] (4+2/6) Accurately ripped
03 [5613eeed|26fd9221] (4+2/6) Accurately ripped
04 [a8a82e88|e76e95ef] (4+2/6) Accurately ripped
05 [90b6c058|7914018d] (4+2/6) Accurately ripped
06 [a07bbe18|e18a911e] (4+2/6) Accurately ripped
07 [22e98509|2f653708] (4+2/6) Accurately ripped
08 [3c497906|c8a4232c] (4+2/6) Accurately ripped
09 [988b1d53|91642b6b] (3+2/5) Accurately ripped
10 [5bd6cc8a|a91fdfac] (4+2/6) Accurately ripped
11 [5bb06f41|f67d3215] (4+2/6) Accurately ripped
12 [f2bf1d8e|703413e7] (4+2/6) Accurately ripped
13 [2a26eab3|a9c86ee1] (3+2/5) Accurately ripped

Track Peak [ CRC32 ] [W/O NULL] [ LOG ]
– 98,8 [4EB14695] [50B05B38]
01 96,6 [57283C54] [AE275271] CRC32
02 96,2 [20AB45CC] [B439A818] CRC32
03 42,1 [6CBC4C2B] [FB0BBE97] CRC32
04 95,9 [8E1445A8] [49D270A6] CRC32
05 94,9 [6E57B9BD] [4100E2BB] CRC32
06 90,8 [DC3C95F8] [45A04278] CRC32
07 91,3 [AF9FC1B5] [B77CDC59] CRC32
08 96,2 [9915ADA5] [A9F721D3] CRC32
09 96,1 [F4361ABD] [31D8BCB6] CRC32
10 96,1 [F22D5086] [E72D4B44] CRC32
11 96,2 [D0B69C12] [8C8E498F] CRC32
12 98,8 [4D4ED9EF] [CC725E21] CRC32
13 96,6 [24847910] [A20BF5B4] CRC32

foobar2000 1.2 / Dynamic Range Meter 1.1.1
log date: 2018-04-29 14:30:20

––––––––––––––––––––––––––––––––––––––––
Analyzed: Furry Lewis / Furry Lewis & Mississippi Joe Callicott - The Complete Blue Horizon Sessions
––––––––––––––––––––––––––––––––––––––––

DR Peak RMS Duration Track
––––––––––––––––––––––––––––––––––––––––
DR13 -0.30 dB -16.27 dB 4:40 01-Judge Harsh Blues
DR11 -0.33 dB -15.20 dB 4:50 02-Let's Shake Hand in Hand
DR6 -7.50 dB -16.78 dB 2:39 03-Waiting For a Train
DR12 -0.36 dB -16.75 dB 2:41 04-Let Me Call You Sweetheart
DR13 -0.45 dB -16.43 dB 5:44 05-Big Chief Blues
DR12 -0.83 dB -15.47 dB 2:33 06-Casey Jones
DR13 -0.78 dB -17.97 dB 2:36 07-Take Your Time Rag
DR11 -0.33 dB -14.31 dB 5:40 08-John Henry
DR13 -0.34 dB -15.94 dB 4:01 09-Skinny Woman
DR12 -0.34 dB -15.59 dB 3:09 10-See That My Grave is Kept Clean
DR12 -0.33 dB -15.25 dB 2:45 11-Glory Hallelujah, When I Lay My Burden Down
DR10 -0.10 dB -14.38 dB 9:31 12-Furry's Monday Woman Blues
DR12 -0.30 dB -14.40 dB 5:52 13-Furry Lewis Blues
––––––––––––––––––––––––––––––––––––––––

Number of tracks: 13
Official DR value: DR12

Samplerate: 44100 Hz
Channels: 2
Bits per sample: 16
Bitrate: 500 kbps
Codec: FLAC
================================================================================


Exact Audio Copy V0.99 prebeta 4 from 23. January 2008

EAC extraction logfile from 2. November 2013, 4:53

Furry Lewis & Mississippi Joe Callicott / The Complete Blue Horizon Sessions disc 2

Used drive : PIONEER DVD-RW DVR-110D Adapter: 1 ID: 1

Read mode : Secure
Utilize accurate stream : Yes
Defeat audio cache : Yes
Make use of C2 pointers : No

Read offset correction : 48
Overread into Lead-In and Lead-Out : No
Fill up missing offset samples with silence : Yes
Delete leading and trailing silent blocks : No
Null samples used in CRC calculations : Yes
Used interface : Native Win32 interface for Win NT & 2000
Gap handling : Appended to previous track

Used output format : User Defined Encoder
Selected bitrate : 1024 kBit/s
Quality : High
Add ID3 tag : No
Command line compressor : C:\Program Files\FLAC\flac.exe
Additional command line options : -8 -V %s


TOC of the extracted CD

Track | Start | Length | Start sector | End sector
––––––––––––––––––––––––––––-
1 | 0:00.00 | 5:15.63 | 0 | 23687
2 | 5:15.63 | 6:23.45 | 23688 | 52457
3 | 11:39.33 | 4:14.60 | 52458 | 71567
4 | 15:54.18 | 5:53.06 | 71568 | 98048
5 | 21:47.24 | 3:48.40 | 98049 | 115188
6 | 25:35.64 | 5:18.15 | 115189 | 139053
7 | 30:54.04 | 6:24.73 | 139054 | 167926
8 | 37:19.02 | 4:32.58 | 167927 | 188384
9 | 41:51.60 | 2:42.68 | 188385 | 200602
10 | 44:34.53 | 5:41.65 | 200603 | 226242
11 | 50:16.43 | 4:43.28 | 226243 | 247495
12 | 54:59.71 | 3:10.31 | 247496 | 261776
13 | 58:10.27 | 4:34.51 | 261777 | 282377
14 | 62:45.03 | 6:28.71 | 282378 | 311548
15 | 69:13.74 | 5:31.62 | 311549 | 336435
16 | 74:45.61 | 4:13.12 | 336436 | 355422


Track 1

Filename D:\Torrents\Furry Lewis & Mississippi Joe Callicott - The Complete Blue Horizon Sessions 2007\Disc 2\01 You don't Know My Mind.wav

Pre-gap length 0:00:02.00

Peak level 85.7 %
Track quality 100.0 %
Test CRC 5C4BC5E7
Copy CRC 5C4BC5E7
Accurately ripped (confidence 4) [B0C8CA74]
Copy OK

Track 2

Filename D:\Torrents\Furry Lewis & Mississippi Joe Callicott - The Complete Blue Horizon Sessions 2007\Disc 2\02 Dough Roller Blues.wav

Pre-gap length 0:00:02.25

Peak level 85.7 %
Track quality 100.0 %
Test CRC DCDB1E3C
Copy CRC DCDB1E3C
Accurately ripped (confidence 3) [295AC264]
Copy OK

Track 3

Filename D:\Torrents\Furry Lewis & Mississippi Joe Callicott - The Complete Blue Horizon Sessions 2007\Disc 2\03 War Time Blues.wav

Pre-gap length 0:00:02.44

Peak level 96.2 %
Track quality 100.0 %
Test CRC F4117014
Copy CRC F4117014
Accurately ripped (confidence 4) [AB2C7DAD]
Copy OK

Track 4

Filename D:\Torrents\Furry Lewis & Mississippi Joe Callicott - The Complete Blue Horizon Sessions 2007\Disc 2\04 Joe's Troubled Blues.wav

Pre-gap length 0:00:02.71

Peak level 96.1 %
Track quality 100.0 %
Test CRC 610A4F50
Copy CRC 610A4F50
Accurately ripped (confidence 4) [C4C44FB4]
Copy OK

Track 5

Filename D:\Torrents\Furry Lewis & Mississippi Joe Callicott - The Complete Blue Horizon Sessions 2007\Disc 2\05 On My Last Go Round.wav

Pre-gap length 0:00:03.66

Peak level 96.1 %
Track quality 100.0 %
Test CRC 830570F4
Copy CRC 830570F4
Accurately ripped (confidence 4) [73B49A4D]
Copy OK

Track 6

Filename D:\Torrents\Furry Lewis & Mississippi Joe Callicott - The Complete Blue Horizon Sessions 2007\Disc 2\06 Hoist Your Window and Let Your Curtain Down.wav

Pre-gap length 0:00:03.25

Peak level 96.1 %
Track quality 100.0 %
Test CRC 1BD4C721
Copy CRC 1BD4C721
Accurately ripped (confidence 4) [5674225E]
Copy OK

Track 7

Filename D:\Torrents\Furry Lewis & Mississippi Joe Callicott - The Complete Blue Horizon Sessions 2007\Disc 2\07 Married Woman Blues.wav

Pre-gap length 0:00:02.56

Peak level 96.1 %
Track quality 100.0 %
Test CRC 503751A2
Copy CRC 503751A2
Accurately ripped (confidence 4) [945C9412]
Copy OK

Track 8

Filename D:\Torrents\Furry Lewis & Mississippi Joe Callicott - The Complete Blue Horizon Sessions 2007\Disc 2\08 Poor Boy Blues.wav

Pre-gap length 0:00:02.62

Peak level 96.1 %
Track quality 100.0 %
Test CRC 93431065
Copy CRC 93431065
Accurately ripped (confidence 3) [324C4D7F]
Copy OK

Track 9

Filename D:\Torrents\Furry Lewis & Mississippi Joe Callicott - The Complete Blue Horizon Sessions 2007\Disc 2\09 Frankie and Albert - take 1.wav

Pre-gap length 0:00:03.47

Peak level 87.0 %
Track quality 100.0 %
Test CRC 4F80962A
Copy CRC 4F80962A
Accurately ripped (confidence 4) [1AFA15E2]
Copy OK

Track 10

Filename D:\Torrents\Furry Lewis & Mississippi Joe Callicott - The Complete Blue Horizon Sessions 2007\Disc 2\10 Frankie and Albert - take 2.wav

Pre-gap length 0:00:03.59

Peak level 87.4 %
Track quality 100.0 %
Test CRC A06AC21E
Copy CRC A06AC21E
Accurately ripped (confidence 3) [64FF019E]
Copy OK

Track 11

Filename D:\Torrents\Furry Lewis & Mississippi Joe Callicott - The Complete Blue Horizon Sessions 2007\Disc 2\11 Leavin' Town Blues.wav

Pre-gap length 0:00:03.20

Peak level 89.4 %
Track quality 100.0 %
Test CRC 5A233DDF
Copy CRC 5A233DDF
Accurately ripped (confidence 3) [5E271690]
Copy OK

Track 12

Filename D:\Torrents\Furry Lewis & Mississippi Joe Callicott - The Complete Blue Horizon Sessions 2007\Disc 2\12 Going Away Blues.wav

Pre-gap length 0:00:03.52

Peak level 89.8 %
Track quality 100.0 %
Test CRC 8D42FA8B
Copy CRC 8D42FA8B
Accurately ripped (confidence 4) [84EB70C2]
Copy OK

Track 13

Filename D:\Torrents\Furry Lewis & Mississippi Joe Callicott - The Complete Blue Horizon Sessions 2007\Disc 2\13 Worried Now In a Tennesse Town.wav

Pre-gap length 0:00:03.37

Peak level 81.0 %
Track quality 100.0 %
Test CRC 6F0794E7
Copy CRC 6F0794E7
Accurately ripped (confidence 4) [6AB57094]
Copy OK

Track 14

Filename D:\Torrents\Furry Lewis & Mississippi Joe Callicott - The Complete Blue Horizon Sessions 2007\Disc 2\14 Lost My Money In Jim Kinnane's.wav

Pre-gap length 0:00:04.45

Peak level 88.9 %
Track quality 100.0 %
Test CRC 1C93598B
Copy CRC 1C93598B
Accurately ripped (confidence 4) [8C6390A9]
Copy OK

Track 15

Filename D:\Torrents\Furry Lewis & Mississippi Joe Callicott - The Complete Blue Horizon Sessions 2007\Disc 2\15 Worried Blues.wav

Pre-gap length 0:00:02.03

Peak level 93.6 %
Track quality 100.0 %
Test CRC 86D90478
Copy CRC 86D90478
Accurately ripped (confidence 4) [1534066E]
Copy OK

Track 16

Filename D:\Torrents\Furry Lewis & Mississippi Joe Callicott - The Complete Blue Horizon Sessions 2007\Disc 2\16 You Don't Know My Mind - alt take.wav

Pre-gap length 0:00:03.18

Peak level 84.0 %
Track quality 100.0 %
Test CRC 79297888
Copy CRC 79297888
Accurately ripped (confidence 4) [37BE45BE]
Copy OK


All tracks accurately ripped

No errors occurred

End of status report

[CUETools log; Date: 29.04.2018 14:05:08; Version: 2.1.4]
[CTDB TOCID: 5EVCHkKh8RoBoY2gjwF9ixE2NN4-] found.
Track | CTDB Status
1 | (6/6) Accurately ripped
2 | (6/6) Accurately ripped
3 | (6/6) Accurately ripped
4 | (6/6) Accurately ripped
5 | (6/6) Accurately ripped
6 | (6/6) Accurately ripped
7 | (6/6) Accurately ripped
8 | (6/6) Accurately ripped
9 | (6/6) Accurately ripped
10 | (6/6) Accurately ripped
11 | (6/6) Accurately ripped
12 | (6/6) Accurately ripped
13 | (6/6) Accurately ripped
14 | (6/6) Accurately ripped
15 | (6/6) Accurately ripped
16 | (6/6) Accurately ripped
[AccurateRip ID: 002ef84f-022e88cf-e5128210] found.
Track [ CRC | V2 ] Status
01 [b0c8ca74|cb2e9386] (5+2/7) Accurately ripped
02 [295ac264|563fadf4] (4+2/6) Accurately ripped
03 [ab2c7dad|b1982c09] (5+2/7) Accurately ripped
04 [c4c44fb4|adf516e8] (5+2/7) Accurately ripped
05 [73b49a4d|a7ac96a6] (5+2/7) Accurately ripped
06 [5674225e|aba5753f] (5+2/7) Accurately ripped
07 [945c9412|b91ee51b] (5+2/7) Accurately ripped
08 [324c4d7f|2dccd92f] (4+2/6) Accurately ripped
09 [1afa15e2|f7654a93] (5+2/7) Accurately ripped
10 [64ff019e|5d3e1d27] (4+2/6) Accurately ripped
11 [5e271690|5302399b] (4+2/6) Accurately ripped
12 [84eb70c2|d39d0cf2] (5+2/7) Accurately ripped
13 [6ab57094|fe49325a] (5+2/7) Accurately ripped
14 [8c6390a9|f889ae4c] (5+2/7) Accurately ripped
15 [1534066e|3ef89f3d] (5+2/7) Accurately ripped
16 [37be45be|29fbb1a7] (5+2/7) Accurately ripped

Track Peak [ CRC32 ] [W/O NULL] [ LOG ]
– 96,1 [608FD72C] [E1697E87]
01 85,7 [5C4BC5E7] [FC3C4754] CRC32
02 85,7 [DCDB1E3C] [7B33D51A] CRC32
03 96,1 [F4117014] [8C7238C2] CRC32
04 96,1 [610A4F50] [3B5F9899] CRC32
05 96,1 [830570F4] [20ECC50D] CRC32
06 96,1 [1BD4C721] [09A1051C] CRC32
07 96,1 [503751A2] [83C523EF] CRC32
08 96,1 [93431065] [CF9DBD9B] CRC32
09 87,0 [4F80962A] [D8DC4ABB] CRC32
10 87,4 [A06AC21E] [746ECD58] CRC32
11 89,4 [5A233DDF] [2A5554FC] CRC32
12 89,8 [8D42FA8B] [E38A0C72] CRC32
13 81,0 [6F0794E7] [D7E83BAE] CRC32
14 88,9 [1C93598B] [44F9CECD] CRC32
15 93,6 [86D90478] [793217AD] CRC32
16 84,0 [79297888] [FE1C9B4B] CRC32

foobar2000 1.2 / Dynamic Range Meter 1.1.1
log date: 2018-04-29 14:31:05

––––––––––––––––––––––––––––––––––––––––
Analyzed: Mississippi Joe Callicott / Furry Lewis & Mississippi Joe Callicott - The Complete Blue Horizon Sessions
––––––––––––––––––––––––––––––––––––––––

DR Peak RMS Duration Track
––––––––––––––––––––––––––––––––––––––––
DR9 -1.33 dB -14.00 dB 5:16 01-You don't Know My Mind
DR10 -1.33 dB -14.05 dB 6:24 02-Dough Roller Blues
DR10 -0.34 dB -13.29 dB 4:15 03-War Time Blues
DR11 -0.34 dB -15.36 dB 5:53 04-Joe's Troubled Blues
DR10 -0.34 dB -13.67 dB 3:49 05-On My Last Go Round
DR11 -0.34 dB -13.79 dB 5:18 06-Hoist Your Window and Let Your Curtain Down
DR10 -0.34 dB -13.82 dB 6:25 07-Married Woman Blues
DR10 -0.34 dB -14.01 dB 4:33 08-Poor Boy Blues
DR11 -1.21 dB -14.83 dB 2:43 09-Frankie and Albert - take 1
DR13 -1.16 dB -16.41 dB 5:42 10-Frankie and Albert - take 2
DR11 -0.97 dB -14.49 dB 4:43 11-Leavin' Town Blues
DR11 -0.93 dB -14.89 dB 3:10 12-Going Away Blues
DR12 -1.83 dB -16.20 dB 4:35 13-Worried Now In a Tennesse Town
DR12 -1.02 dB -15.98 dB 6:29 14-Lost My Money In Jim Kinnane's
DR11 -0.57 dB -14.24 dB 5:32 15-Worried Blues
DR11 -1.51 dB -14.58 dB 4:13 16-You Don't Know My Mind - alt take
––––––––––––––––––––––––––––––––––––––––

Number of tracks: 16
Official DR value: DR11

Samplerate: 44100 Hz
Channels: 2
Bits per sample: 16
Bitrate: 390 kbps
Codec: FLAC
================================================================================

Furry Lewis & Mississippi Joe Callicott - The Complete Blue Horizon Sessions (2007) 2CDs

Furry Lewis & Mississippi Joe Callicott - The Complete Blue Horizon Sessions (2007) 2CDs

All thanks to original releaser - zhconst

More interesting music in My Blog