Subcategories
Tags
Language
Tags

George Michael - Greatest Hits (1995)

Posted By: TestTickles
George Michael - Greatest Hits (1995)

George Michael - Greatest Hits (1995)
EAC Rip | FLAC with CUE and log | scans | 526 mb
MP3 CBR 320kbps | RAR | 180 mb
Genre: R&B, soul, pop soul

This is an unauthorized Greatest Hits compilation by British singer George Michael. Released in 1995 on an unknown/unmentioned label, the disc was sampled from official material and while all songs are credited to George Michael, four of the songs were originally credited to his group Wham!.

George Michael - Greatest Hits (1995)

01. George Michael - Freedom '90 (6:33)
02. Wham! - Young Guns (Go For It) (5:14)
03. Wham! - Where Did Your Heart Go (5:45)
04. George Michael - Careless Whisper (5:05)
05. George Michael - Mother's Pride (4:01)
06. Wham! - Last Christmas (Pudding Mix) (6:47)
07. George Michael - I Want Your Sex (Part 1 & 2) (9:17)
08. George Michael - Too Funky (5:37)
09. George Michael - Faith (3:14)
10. George Michael - One More Try (5:50)
11. George Michael featuring Lisa Stansfield - These Are The Days Of Our Lives (4:45)
12. George Michael - Tonight (5:57)
13. George Michael - They Won't Go When I Go (5:08)
14. Wham! - The Edge Of Heaven (4:34)

Exact Audio Copy V1.0 beta 3 from 29. August 2011

EAC extraction logfile from 13. July 2020, 12:06

George Michael / Greatest Hits

Used drive : ATAPI iHAS122 C Adapter: 3 ID: 0

Read mode : Secure
Utilize accurate stream : Yes
Defeat audio cache : Yes
Make use of C2 pointers : Yes

Read offset correction : 6
Overread into Lead-In and Lead-Out : No
Fill up missing offset samples with silence : Yes
Delete leading and trailing silent blocks : No
Null samples used in CRC calculations : Yes
Used interface : Native Win32 interface for Win NT & 2000

Used output format : Internal WAV Routines
Sample format : 44.100 Hz; 16 Bit; Stereo

TOC of the extracted CD

Track | Start | Length | Start sector | End sector
––––––––––––––––––––––––––––-
1 | 0:00.00 | 6:32.67 | 0 | 29466
2 | 6:32.67 | 5:13.58 | 29467 | 52999
3 | 11:46.50 | 5:45.05 | 53000 | 78879
4 | 17:31.55 | 5:05.00 | 78880 | 101754
5 | 22:36.55 | 4:00.45 | 101755 | 119799
6 | 26:37.25 | 6:46.62 | 119800 | 150311
7 | 33:24.12 | 9:16.43 | 150312 | 192054
8 | 42:40.55 | 5:36.60 | 192055 | 217314
9 | 48:17.40 | 3:13.42 | 217315 | 231831
10 | 51:31.07 | 5:50.28 | 231832 | 258109
11 | 57:21.35 | 4:45.12 | 258110 | 279496
12 | 62:06.47 | 5:57.13 | 279497 | 306284
13 | 68:03.60 | 5:07.65 | 306285 | 329374
14 | 73:11.50 | 4:34.25 | 329375 | 349949

Range status and errors

Selected range

Filename C:\cuntfist\FLAC\George Michael - Greatest Hits (1995) [FLAC]\George Michael - Greatest Hits.wav

Peak level 100.0 %
Extraction speed 5.4 X
Range quality 100.0 %
Test CRC 8B181853
Copy CRC 8B181853
Copy OK

No errors occurred

AccurateRip summary

Track 1 accurately ripped (confidence 1) [F1ABD874] (AR v2)
Track 2 accurately ripped (confidence 2) [259E4299] (AR v1)
Track 3 accurately ripped (confidence 2) [E04EB443] (AR v1)
Track 4 accurately ripped (confidence 1) [9847D89B] (AR v1)
Track 5 accurately ripped (confidence 1) [C9802622] (AR v1)
Track 6 accurately ripped (confidence 1) [3680A610] (AR v1)
Track 7 accurately ripped (confidence 1) [19C936EC] (AR v1)
Track 8 accurately ripped (confidence 2) [66354709] (AR v1)
Track 9 accurately ripped (confidence 2) [763893E7] (AR v1)
Track 10 accurately ripped (confidence 1) [173FEB9D] (AR v1)
Track 11 accurately ripped (confidence 2) [4BC19534] (AR v1)
Track 12 accurately ripped (confidence 1) [EB06F2BE] (AR v2)
Track 13 accurately ripped (confidence 1) [5E134B76] (AR v2)
Track 14 accurately ripped (confidence 1) [B1048724] (AR v2)

All tracks accurately ripped

End of status report

–– CUETools DB Plugin V2.1.3

[CTDB TOCID: 2_04k6MTwr3kQV0Om_i68mecMXA-] found, Submit result: already submitted
[b0b93724] (6/9) Accurately ripped
[847c8462] (1/9) No match
[1121f9e7] (1/9) No match
[5cf23e5b] (1/9) No match

==== Log checksum 0014B455A7812ED3F3C54C248001BDC34E6BFDA857E9500E6E735F7E3EFCC178 ====


George Michael - Greatest Hits (1995)


Thank you to the original uploader.