Tags
Language
Tags

VA - Getting Off!: The Seductive Sounds Of 70's Adult Cinema (2007) {Lucky Monkey/Timewarp} **[RE-UP]**

Posted By: TestTickles
VA - Getting Off!: The Seductive Sounds Of 70's Adult Cinema (2007) {Lucky Monkey/Timewarp} **[RE-UP]**

VA - Getting Off!: The Seductive Sounds Of 70's Adult Cinema (2007) {Lucky Monkey/Timewarp}
EAC Rip | FLAC with CUE and log | scans | 258 mb
MP3 CBR 320kbps | RAR | 97 mb
Genre: soul, R&B, funk, pop, library, incidental

Getting Off!: The Seductive Sounds Of 70's Adult Cinema is a 2007 compilation CD exploring the world of porn music from the golden era of porn films. It features music by Alan Tew, Alan Hawkshaw, Ray Davies (no relation to the member of The Kinks), and a few that remain unknown as they were not properly credited. This was released by Lucky Monkey/Timewarp.
Getting Off: The Seductive Sounds Of 70s Adult Cinema is another porno music compilation - but with a difference; the emphasis is definitely on creating an atmosphere by using the music, with almost no dialogue/moaning/groaning as is the usual deal with porno music comps.

On closer inspection, Getting Off: The Seductive Sounds Of 70s Adult Cinema is actually a compilation of genuine (licensed) 70s library music mixed with some music (lifted from DVD) from actual 70s and early 80s porno movies (hey - we did our research, so you don't have to!), with the library music here having every chance of actually being used in adult movies back in the day.

Whatever - with Getting Off: The Seductive Sounds Of 70s Adult Cinema, the guys at Lucky Monkey Records have put together a great little compilation that definitely evokes that sexy 70s porno movie sound! Now where did we put that double-ended dildo?

VA - Getting Off!: The Seductive Sounds Of 70's Adult Cinema (2007) {Lucky Monkey/Timewarp} **[RE-UP]**

01. L. Hurdle & F. Ricotti - Move On
02. Anton Scott - J.P. Walk (Boogie Nights)
03. Alan Tew - Gentle In The Night
04. Ray Davies - Power Play
05. Unknown - Nude Interlude #1 (Kinky Ladies Of Bourbon Street)
06. Alan Hawkshaw - Hawkind And Fire
07. Brian Bennett - Disco Fever
08. Roger Webb & Keith Grant - The Bends
09. Alan Tew - The Heist
10. Unknown - Nude Interlude #2 (Downstairs, Upstairs)
11. Unknown - Carl's Cabana (Inside Seka)
12. Unknown - Fernando's Blues (Come Under My Spell)
13. Unknown - Nude Interlude #3 (Do You Wanna Be Loved?)
14. Unknown - Bang 'Em Hard (Inside Seka)

Exact Audio Copy V0.99 prebeta 4 from 23. January 2008

EAC extraction logfile from 20. April 2009, 20:47

Various / Getting Off!, The Seductive Sounds Of 70's Adult Cinema

Used drive : TSSTcorpDVD+-RW TS-H653B Adapter: 2 ID: 0

Read mode : Secure
Utilize accurate stream : Yes
Defeat audio cache : Yes
Make use of C2 pointers : No

Read offset correction : 6
Overread into Lead-In and Lead-Out : No
Fill up missing offset samples with silence : Yes
Delete leading and trailing silent blocks : No
Null samples used in CRC calculations : Yes
Used interface : Native Win32 interface for Win NT & 2000
Gap handling : Appended to previous track

Used output format : Internal WAV Routines
Sample format : 44.100 Hz; 16 Bit; Stereo


TOC of the extracted CD

Track | Start | Length | Start sector | End sector
––––––––––––––––––––––––––––-
1 | 0:00.00 | 2:40.45 | 0 | 12044
2 | 2:40.45 | 7:07.22 | 12045 | 44091
3 | 9:47.67 | 4:28.38 | 44092 | 64229
4 | 14:16.30 | 2:36.42 | 64230 | 75971
5 | 16:52.72 | 0:55.43 | 75972 | 80139
6 | 17:48.40 | 3:01.60 | 80140 | 93774
7 | 20:50.25 | 4:05.40 | 93775 | 112189
8 | 24:55.65 | 3:32.40 | 112190 | 128129
9 | 28:28.30 | 3:39.55 | 128130 | 144609
10 | 32:08.10 | 0:54.57 | 144610 | 148716
11 | 33:02.67 | 2:26.50 | 148717 | 159716
12 | 35:29.42 | 1:57.60 | 159717 | 168551
13 | 37:27.27 | 0:49.73 | 168552 | 172299
14 | 38:17.25 | 1:50.67 | 172300 | 180616


Track 1

Filename C:\FLAC\VA - Getting Off! (2007) [FLAC] {Lucky Monkey, Timewarp}\01 - L. Hurdle & F. Ricotti - Move On.wav

Pre-gap length 0:00:02.00

Peak level 98.8 %
Track quality 100.0 %
Test CRC BF825AFB
Copy CRC BF825AFB
Track not present in AccurateRip database
Copy OK

Track 2

Filename C:\FLAC\VA - Getting Off! (2007) [FLAC] {Lucky Monkey, Timewarp}\02 - Anton Scott - J.P. Walk (Boogie Nights).wav

Pre-gap length 0:00:01.04

Peak level 100.0 %
Track quality 100.0 %
Test CRC 03FA121F
Copy CRC 03FA121F
Track not present in AccurateRip database
Copy OK

Track 3

Filename C:\FLAC\VA - Getting Off! (2007) [FLAC] {Lucky Monkey, Timewarp}\03 - Alan Tew - Gentle In The Night.wav

Pre-gap length 0:00:01.22

Peak level 98.8 %
Track quality 100.0 %
Test CRC D50A7686
Copy CRC D50A7686
Track not present in AccurateRip database
Copy OK

Track 4

Filename C:\FLAC\VA - Getting Off! (2007) [FLAC] {Lucky Monkey, Timewarp}\04 - Ray Davies - Power Play.wav

Peak level 98.8 %
Track quality 100.0 %
Test CRC FAB5687A
Copy CRC FAB5687A
Track not present in AccurateRip database
Copy OK

Track 5

Filename C:\FLAC\VA - Getting Off! (2007) [FLAC] {Lucky Monkey, Timewarp}\05 - Unknown - Nude Interlude #1 (Kinky Ladies Of Bourbon Street).wav

Peak level 98.8 %
Track quality 100.0 %
Test CRC A7C8ADF9
Copy CRC A7C8ADF9
Track not present in AccurateRip database
Copy OK

Track 6

Filename C:\FLAC\VA - Getting Off! (2007) [FLAC] {Lucky Monkey, Timewarp}\06 - Alan Hawkshaw - Hawkind And fire.wav

Pre-gap length 0:00:01.06

Peak level 98.8 %
Track quality 100.0 %
Test CRC 34C3BDD0
Copy CRC 34C3BDD0
Track not present in AccurateRip database
Copy OK

Track 7

Filename C:\FLAC\VA - Getting Off! (2007) [FLAC] {Lucky Monkey, Timewarp}\07 - Brian Bennett - Disco Fever.wav

Peak level 100.0 %
Track quality 100.0 %
Test CRC 7F510528
Copy CRC 7F510528
Track not present in AccurateRip database
Copy OK

Track 8

Filename C:\FLAC\VA - Getting Off! (2007) [FLAC] {Lucky Monkey, Timewarp}\08 - Roger Webb & Keith Grant - The Bends.wav

Peak level 100.0 %
Track quality 99.9 %
Test CRC AD963143
Copy CRC AD963143
Track not present in AccurateRip database
Copy OK

Track 9

Filename C:\FLAC\VA - Getting Off! (2007) [FLAC] {Lucky Monkey, Timewarp}\09 - Alan Tew - The Heist.wav

Peak level 98.8 %
Track quality 100.0 %
Test CRC B36746E1
Copy CRC B36746E1
Track not present in AccurateRip database
Copy OK

Track 10

Filename C:\FLAC\VA - Getting Off! (2007) [FLAC] {Lucky Monkey, Timewarp}\10 - Unknown - Nude Interlude #2 (Downstairs, Upstairs).wav

Peak level 100.0 %
Track quality 100.0 %
Test CRC 6B678D85
Copy CRC 6B678D85
Track not present in AccurateRip database
Copy OK

Track 11

Filename C:\FLAC\VA - Getting Off! (2007) [FLAC] {Lucky Monkey, Timewarp}\11 - Unknown - Carl's cabana (Inside Seka).wav

Pre-gap length 0:00:02.13

Peak level 98.8 %
Track quality 100.0 %
Test CRC 1275DBCC
Copy CRC 1275DBCC
Track not present in AccurateRip database
Copy OK

Track 12

Filename C:\FLAC\VA - Getting Off! (2007) [FLAC] {Lucky Monkey, Timewarp}\12 - Unknown - Fernando's Blues (Come Under My Spell).wav

Peak level 98.8 %
Track quality 100.0 %
Test CRC 75EBC30F
Copy CRC 75EBC30F
Track not present in AccurateRip database
Copy OK

Track 13

Filename C:\FLAC\VA - Getting Off! (2007) [FLAC] {Lucky Monkey, Timewarp}\13 - Unknown - Nude Interlude #3 (Do You Wanna Be Loved ).wav

Peak level 98.8 %
Track quality 100.0 %
Test CRC 35EE2BFE
Copy CRC 35EE2BFE
Track not present in AccurateRip database
Copy OK

Track 14

Filename C:\FLAC\VA - Getting Off! (2007) [FLAC] {Lucky Monkey, Timewarp}\14 - Unknown - Bang 'Em Hard (Inside Seka).wav

Peak level 98.8 %
Track quality 100.0 %
Test CRC 2E809076
Copy CRC 2E809076
Track not present in AccurateRip database
Copy OK


None of the tracks are present in the AccurateRip database

No errors occurred

End of status report


VA - Getting Off!: The Seductive Sounds Of 70's Adult Cinema (2007) {Lucky Monkey/Timewarp} **[RE-UP]**