Tags
Language
Tags
February 2023
Su Mo Tu We Th Fr Sa
29 30 31 1 2 3 4
5 6 7 8 9 10 11
12 13 14 15 16 17 18
19 20 21 22 23 24 25
26 27 28 1 2 3 4

Richard "Groove" Holmes - After Hours (1962) {1996 Pacific Jazz/Blue Note}

Posted By: TestTickles
Richard "Groove" Holmes - After Hours (1962) {1996 Pacific Jazz/Blue Note}

Richard "Groove" Holmes - After Hours (1962) {1996 Pacific Jazz/Blue Note}
EAC Rip | FLAC with CUE and log | scans | 386 mb
MP3 CBR 320kbps | RAR | 145 mb
Genre: jazz

After Hours is the 1962 album by American jazz organized Richard Holmes, who was also known as Richard "Groove" Holmes or simply Groove Holmes. Originally released by Pacific Jazz, this was remastered and reissued in association with Blue Note in a different order than the original LP. Its bonus tracks are songs from the 1966 album Tell It Like It Is, although the songs were recorded around the same time the songs on After Hours were.

Richard "Groove" Holmes - After Hours (1962) {1996 Pacific Jazz/Blue Note}

01. Sweatin'
02. Jeannine
03. Minor Surgery
04. This Here (Bonus Track)
05. It Might As Well Be Spring (Bonus Track)
06. Moose The Mooche
07. Groove's Bag
08. Hallelujah, I Love Her So
09. After Hours
10. Later (Bonus Track)
11. Do It My Way
12. Secret Love (Bonus Track)
13. Denise (Bonus Track)

Richard "Groove" Holmes-organ
Joe Pass-guitar (tracks 1-7)
Gene Edwards-guitar (tracks 8-13)
Larance Marable-drums (track 1-7)
Leroy Henderson-drums (tracks 8-13)

Produced & engineered by Richard Bock
Recoded at Pacific Jazz Studios in 1961 (tracks 8-13) and 1962 (tracks 1-7)
Remastered by Ron McMaster

Tracks 1-3, 6-9 & 11 originally appeared on "After Hours"
Tracks #4, 5 10, 12 & 13 originally appeared on "Tell It Like It Is"

Original order of After Hours album:
01. Hallelujah, I Love Her So
02. After Hours
03. Groove's Bag
04. Sweatin'
05. Moose The Mooche (titled "Groove Bird" on the original album)
06. Minor Surgery
07. Do It My Way
08. Jeannine (titled "Jenne" on the original album)

Songs from Tell It Like It Is in order of appearance:
Denise
Later
This Here
Secret Love
It Might As Well Be Spring

Exact Audio Copy V1.0 beta 6 from 9. April 2015

EAC extraction logfile from 8. January 2018, 13:22

Richard "Groove" Holmes / After Hours

Used drive : TSSTcorpDVD+-RW TS-L633C Adapter: 1 ID: 0

Read mode : Secure
Utilize accurate stream : Yes
Defeat audio cache : Yes
Make use of C2 pointers : No

Read offset correction : 6
Overread into Lead-In and Lead-Out : No
Fill up missing offset samples with silence : Yes
Delete leading and trailing silent blocks : No
Null samples used in CRC calculations : Yes
Used interface : Native Win32 interface for Win NT & 2000
Gap handling : Appended to previous track

Used output format : Internal WAV Routines
Sample format : 44.100 Hz; 16 Bit; Stereo


TOC of the extracted CD

Track | Start | Length | Start sector | End sector
––––––––––––––––––––––––––––-
1 | 0:00.00 | 4:35.70 | 0 | 20694
2 | 4:35.70 | 2:56.65 | 20695 | 33959
3 | 7:32.60 | 4:13.12 | 33960 | 52946
4 | 11:45.72 | 4:08.15 | 52947 | 71561
5 | 15:54.12 | 5:16.15 | 71562 | 95276
6 | 21:10.27 | 5:21.55 | 95277 | 119406
7 | 26:32.07 | 6:46.48 | 119407 | 149904
8 | 33:18.55 | 2:33.40 | 149905 | 161419
9 | 35:52.20 | 5:25.37 | 161420 | 185831
10 | 41:17.57 | 4:34.15 | 185832 | 206396
11 | 45:51.72 | 5:01.23 | 206397 | 228994
12 | 50:53.20 | 6:44.17 | 228995 | 259311
13 | 57:37.37 | 3:16.60 | 259312 | 274071


Track 1

Filename C:\My Documents\My FLAC\Richard ''Groove'' Holmes - After Hours (1962) [FLAC] {1996 Pacific Jazz, Blue Note}\01 - Sweatin'.wav

Pre-gap length 0:00:02.00

Peak level 84.1 %
Extraction speed 1.2 X
Track quality 100.0 %
Test CRC B5954424
Copy CRC B5954424
Accurately ripped (confidence 4) [5E8BC6A9] (AR v2)
Copy OK

Track 2

Filename C:\My Documents\My FLAC\Richard ''Groove'' Holmes - After Hours (1962) [FLAC] {1996 Pacific Jazz, Blue Note}\02 - Jeannine.wav

Pre-gap length 0:00:01.08

Peak level 78.6 %
Extraction speed 1.2 X
Track quality 100.0 %
Test CRC B7061543
Copy CRC B7061543
Accurately ripped (confidence 4) [3CA39A72] (AR v2)
Copy OK

Track 3

Filename C:\My Documents\My FLAC\Richard ''Groove'' Holmes - After Hours (1962) [FLAC] {1996 Pacific Jazz, Blue Note}\03 - Minor Surgery.wav

Pre-gap length 0:00:01.05

Peak level 84.9 %
Extraction speed 1.4 X
Track quality 100.0 %
Test CRC C6665CCF
Copy CRC C6665CCF
Accurately ripped (confidence 4) [B8610230] (AR v2)
Copy OK

Track 4

Filename C:\My Documents\My FLAC\Richard ''Groove'' Holmes - After Hours (1962) [FLAC] {1996 Pacific Jazz, Blue Note}\04 - This Here.wav

Pre-gap length 0:00:01.30

Peak level 84.3 %
Extraction speed 1.5 X
Track quality 100.0 %
Test CRC 607D84B2
Copy CRC 607D84B2
Accurately ripped (confidence 4) [EAFA2C8F] (AR v2)
Copy OK

Track 5

Filename C:\My Documents\My FLAC\Richard ''Groove'' Holmes - After Hours (1962) [FLAC] {1996 Pacific Jazz, Blue Note}\05 - It Might As Well Be Spring.wav

Pre-gap length 0:00:01.10

Peak level 76.2 %
Extraction speed 1.7 X
Track quality 100.0 %
Test CRC 47CA994D
Copy CRC 47CA994D
Accurately ripped (confidence 4) [C3F7E550] (AR v2)
Copy OK

Track 6

Filename C:\My Documents\My FLAC\Richard ''Groove'' Holmes - After Hours (1962) [FLAC] {1996 Pacific Jazz, Blue Note}\06 - Moose The Mooche.wav

Pre-gap length 0:00:01.27

Peak level 89.9 %
Extraction speed 1.8 X
Track quality 100.0 %
Test CRC C9AD2774
Copy CRC C9AD2774
Accurately ripped (confidence 4) [2BF80675] (AR v2)
Copy OK

Track 7

Filename C:\My Documents\My FLAC\Richard ''Groove'' Holmes - After Hours (1962) [FLAC] {1996 Pacific Jazz, Blue Note}\07 - Groove's Bag.wav

Pre-gap length 0:00:01.07

Peak level 85.2 %
Extraction speed 2.0 X
Track quality 100.0 %
Test CRC 4C68DAEB
Copy CRC 4C68DAEB
Accurately ripped (confidence 4) [36626FA8] (AR v2)
Copy OK

Track 8

Filename C:\My Documents\My FLAC\Richard ''Groove'' Holmes - After Hours (1962) [FLAC] {1996 Pacific Jazz, Blue Note}\08 - Hallelujah, I Love Her So.wav

Pre-gap length 0:00:01.38

Peak level 85.8 %
Extraction speed 1.8 X
Track quality 100.0 %
Test CRC D17E00DA
Copy CRC D17E00DA
Accurately ripped (confidence 4) [EA0DC62A] (AR v2)
Copy OK

Track 9

Filename C:\My Documents\My FLAC\Richard ''Groove'' Holmes - After Hours (1962) [FLAC] {1996 Pacific Jazz, Blue Note}\09 - After Hours.wav

Peak level 85.6 %
Extraction speed 2.1 X
Track quality 100.0 %
Test CRC 65D94C35
Copy CRC 65D94C35
Accurately ripped (confidence 4) [496F1595] (AR v2)
Copy OK

Track 10

Filename C:\My Documents\My FLAC\Richard ''Groove'' Holmes - After Hours (1962) [FLAC] {1996 Pacific Jazz, Blue Note}\10 - Later.wav

Pre-gap length 0:00:01.20

Peak level 82.3 %
Extraction speed 1.7 X
Track quality 99.9 %
Test CRC A054D749
Copy CRC A054D749
Accurately ripped (confidence 4) [611F24CA] (AR v2)
Copy OK

Track 11

Filename C:\My Documents\My FLAC\Richard ''Groove'' Holmes - After Hours (1962) [FLAC] {1996 Pacific Jazz, Blue Note}\11 - Do It My Way.wav

Pre-gap length 0:00:01.10

Peak level 85.8 %
Extraction speed 0.6 X
Track quality 99.9 %
Test CRC 1DADA31B
Copy CRC 1DADA31B
Accurately ripped (confidence 4) [47F7E6BE] (AR v2)
Copy OK

Track 12

Filename C:\My Documents\My FLAC\Richard ''Groove'' Holmes - After Hours (1962) [FLAC] {1996 Pacific Jazz, Blue Note}\12 - Secret Love.wav

Peak level 84.8 %
Extraction speed 2.2 X
Track quality 99.9 %
Test CRC C5DE0840
Copy CRC C5DE0840
Accurately ripped (confidence 4) [B87B88B1] (AR v2)
Copy OK

Track 13

Filename C:\My Documents\My FLAC\Richard ''Groove'' Holmes - After Hours (1962) [FLAC] {1996 Pacific Jazz, Blue Note}\13 - Denise.wav

Pre-gap length 0:00:01.30

Peak level 84.2 %
Extraction speed 2.3 X
Track quality 100.0 %
Test CRC B11A88E4
Copy CRC B11A88E4
Accurately ripped (confidence 4) [6C064B52] (AR v2)
Copy OK


All tracks accurately ripped

No errors occurred

End of status report

–– CUETools DB Plugin V2.1.6

[CTDB TOCID: VjR53BoXphYET9_h6aICD8aZUQQ-] database access error: There is an error in XML document (2, 2).


==== Log checksum 51FE2CD23119F994604FC56B013DDD63B611B0CF9B50464F559B99B34C1A8970 ====


Richard "Groove" Holmes - After Hours (1962) {1996 Pacific Jazz/Blue Note}