Tags
Language
Tags

VA - Great Virtuosi Of The Golden Age, Vol. 1 (1988} {Pearl}

Posted By: TestTickles
VA - Great Virtuosi Of The Golden Age, Vol. 1 (1988} {Pearl}

VA - Great Virtuosi Of The Golden Age, Vol. 1 (1988} {Pearl}
EAC Rip | FLAC with CUE and LOG | scans | 167 mb
MP3 CBR 320 kbps | RAR | 91 mb
Genre: classical, baroque, romantic

Great Virtuosi Of The Golden Age, Vol. 1 is a commpilation CD released in 1988 on Pearl Records. Originally released on vinyl, these recordings were originally done in the early 20th century.

01. Eugene Ysaye - Rondino, Op. 32 No. 2
02. Eugene Ysaye - Mazurkas, Op. 19
03. Eugene Ysaye - Violin Concerto in E minor, Op. 64: III. Allegretto non troppo - Allegro molto vivace
04. Mischa Elman - Ave Maria, D. 839
05. Pablo de Sarasate - Zigeunerweisen, Op. 20
06. Pablo de Sarasate - Tarantella, Op. 43
07. Pablo de Sarasate - Zapateado, Op. 23
08. Maud Powell - Minuet in G major, WoO 10 No. 2
09. Joseph Joachim - Hungarian Dance No. 1 in G minor, WoO 1 No. 1: Allegro molto
10. Joseph Joachim - Violin Sonata No. 1 in G minor, BWV 1001: I. Adagio

Exact Audio Copy V1.0 beta 3 from 29. August 2011

EAC extraction logfile from 10. October 2015, 9:02

Various Artists / Great Virtuosi Of The Golden Age, Vol. 1

Used drive : TSSTcorpCDDVDW SE-208DB Adapter: 7 ID: 0

Read mode : Secure
Utilize accurate stream : Yes
Defeat audio cache : Yes
Make use of C2 pointers : No

Read offset correction : 6
Overread into Lead-In and Lead-Out : No
Fill up missing offset samples with silence : Yes
Delete leading and trailing silent blocks : No
Null samples used in CRC calculations : Yes
Used interface : Native Win32 interface for Win NT & 2000
Gap handling : Appended to previous track

Used output format : User Defined Encoder
Selected bitrate : 896 kBit/s
Quality : High
Add ID3 tag : No
Command line compressor : D:\UTorrent\What.CD Toolbox 6 for Windows\Codecs\flac-1.3.0\flac.exe
Additional command line options : -8 -V -T "ARTIST=%artist%" -T "TITLE=%title%" -T "ALBUM=%albumtitle%" -T "DATE=%year%" -T "TRACKNUMBER=%tracknr%" -T "GENRE=%genre%" -T "PERFORMER=%albuminterpret%" -T "COMPOSER=%composer%" %haslyrics%–tag-from-file=LYRICS="%lyricsfile%"%haslyrics% -T "ALBUMARTIST=%albumartist%" -T "DISCNUMBER=%cdnumber%" -T "TOTALDISCS=%totalcds%" -T "TOTALTRACKS=%numtracks%" -T "COMMENT=%comment%" %source% -o %dest%


TOC of the extracted CD

Track | Start | Length | Start sector | End sector
––––––––––––––––––––––––––––-
1 | 0:00.00 | 5:00.05 | 0 | 22504
2 | 5:00.05 | 5:03.07 | 22505 | 45236
3 | 10:03.12 | 4:52.73 | 45237 | 67209
4 | 14:56.10 | 4:45.12 | 67210 | 88596
5 | 19:41.22 | 5:35.53 | 88597 | 113774
6 | 25:17.00 | 3:01.47 | 113775 | 127396
7 | 28:18.47 | 3:15.63 | 127397 | 142084
8 | 31:34.35 | 2:40.10 | 142085 | 154094
9 | 34:14.45 | 3:25.30 | 154095 | 169499
10 | 37:40.00 | 3:45.00 | 169500 | 186374


Track 1

Filename C:\cuntfist\FLAC\VA - Great Virtuosi Of The Golden Age, Vol. 1 (1988) [FLAC] {Pearl}\01 - Vieuxtemps- Rondino, Op. 32.wav

Pre-gap length 0:00:02.00

Peak level 73.1 %
Extraction speed 2.7 X
Track quality 100.0 %
Test CRC 25DE0FAF
Copy CRC 25DE0FAF
Accurately ripped (confidence 2) [7117AB7A] (AR v1)
Copy OK

Track 2

Filename C:\cuntfist\FLAC\VA - Great Virtuosi Of The Golden Age, Vol. 1 (1988) [FLAC] {Pearl}\02 - Wienlawski- Mazurkas, Op. 10.wav

Pre-gap length 0:00:04.50

Peak level 80.4 %
Extraction speed 2.6 X
Track quality 99.9 %
Test CRC 41F0B317
Copy CRC 41F0B317
Accurately ripped (confidence 2) [C6165994] (AR v1)
Copy OK

Track 3

Filename C:\cuntfist\FLAC\VA - Great Virtuosi Of The Golden Age, Vol. 1 (1988) [FLAC] {Pearl}\03 - Mendelssohn- Concerto in E minor.wav

Pre-gap length 0:00:04.96

Peak level 83.3 %
Extraction speed 3.3 X
Track quality 100.0 %
Test CRC 8B11A2B9
Copy CRC 8B11A2B9
Accurately ripped (confidence 2) [8AE0CB80] (AR v1)
Copy OK

Track 4

Filename C:\cuntfist\FLAC\VA - Great Virtuosi Of The Golden Age, Vol. 1 (1988) [FLAC] {Pearl}\04 - Schubert- Ave Maria.wav

Pre-gap length 0:00:04.70

Peak level 92.5 %
Extraction speed 3.0 X
Track quality 99.9 %
Test CRC 841AD989
Copy CRC 841AD989
Accurately ripped (confidence 2) [0296A87C] (AR v1)
Copy OK

Track 5

Filename C:\cuntfist\FLAC\VA - Great Virtuosi Of The Golden Age, Vol. 1 (1988) [FLAC] {Pearl}\05 - Sarasate- Zigeunerweisen.wav

Pre-gap length 0:00:03.62

Peak level 85.0 %
Extraction speed 3.9 X
Track quality 100.0 %
Test CRC F1A19E08
Copy CRC F1A19E08
Accurately ripped (confidence 1) [84F3EB6F] (AR v1)
Copy OK

Track 6

Filename C:\cuntfist\FLAC\VA - Great Virtuosi Of The Golden Age, Vol. 1 (1988) [FLAC] {Pearl}\06 - Sarasate- Tarantella.wav

Pre-gap length 0:00:05.17

Peak level 76.8 %
Extraction speed 3.7 X
Track quality 100.0 %
Test CRC 70603759
Copy CRC 70603759
Accurately ripped (confidence 2) [D35EEE9D] (AR v1)
Copy OK

Track 7

Filename C:\cuntfist\FLAC\VA - Great Virtuosi Of The Golden Age, Vol. 1 (1988) [FLAC] {Pearl}\07 - Sarasate- Zapateado.wav

Pre-gap length 0:00:04.73

Peak level 80.7 %
Extraction speed 3.1 X
Track quality 99.9 %
Test CRC 57A7E5FD
Copy CRC 57A7E5FD
Accurately ripped (confidence 2) [D35A432E] (AR v1)
Copy OK

Track 8

Filename C:\cuntfist\FLAC\VA - Great Virtuosi Of The Golden Age, Vol. 1 (1988) [FLAC] {Pearl}\08 - Beethoven- Minuet in G.wav

Pre-gap length 0:00:04.86

Peak level 67.7 %
Extraction speed 3.9 X
Track quality 100.0 %
Test CRC 669268DD
Copy CRC 669268DD
Accurately ripped (confidence 2) [EC5C5C24] (AR v1)
Copy OK

Track 9

Filename C:\cuntfist\FLAC\VA - Great Virtuosi Of The Golden Age, Vol. 1 (1988) [FLAC] {Pearl}\09 - Brahms- Hungarian Dance No. 1.wav

Pre-gap length 0:00:05.10

Peak level 75.6 %
Extraction speed 4.1 X
Track quality 100.0 %
Test CRC E744CB40
Copy CRC E744CB40
Accurately ripped (confidence 1) [914C7790] (AR v1)
Copy OK

Track 10

Filename C:\cuntfist\FLAC\VA - Great Virtuosi Of The Golden Age, Vol. 1 (1988) [FLAC] {Pearl}\10 - Bach- Prelude in G minor.wav

Pre-gap length 0:00:04.60

Peak level 66.5 %
Extraction speed 4.4 X
Track quality 100.0 %
Test CRC C7A9845F
Copy CRC C7A9845F
Accurately ripped (confidence 1) [41695E47] (AR v1)
Copy OK


All tracks accurately ripped

No errors occurred

End of status report

–– CUETools DB Plugin V2.1.3

[CTDB TOCID: 2uoBn1aM2j.YzTSEzir3jDcPXtc-] found, Submit result: 2uoBn1aM2j.YzTSEzir3jDcPXtc- has been confirmed
[e058a383] (1/1) Accurately ripped


==== Log checksum 491701156B23164E68B0B7B34E5CDB99C040CCABAA39667B7F3D05F1A172D3F1 ====


VA - Great Virtuosi Of The Golden Age, Vol. 1 (1988} {Pearl}


Thank you to the original uploader.