Tags
Language
Tags

Cappella Coloniensis; Gabriele Ferro - Luigi Cherubini: Chant sur la mort de Joseph Haydn; Symphony in D major (2009)

Posted By: Designol
Cappella Coloniensis; Gabriele Ferro - Luigi Cherubini: Chant sur la mort de Joseph Haydn; Symphony in D major (2009)

Luigi Cherubini: Chant sur la mort de Joseph Haydn; Symphony in D major (2009)
Marilyn Schmiege, soprano; Martyn Hill, tenor; Paolo Barbacini, tenor
Cappella Coloniensis; Gabriele Ferro, conductor

EAC | FLAC | Image (Cue&Log) ~ 215 Mb | Mp3 (CBR320) ~ 120 Mb | Scans included
Genre: Classical | Label: Phoenix Edition | # 175 | Time: 00:50:56

Luigi Cherubini's Chant sur la mort de Joseph Haydn was not, in the event, written after Haydn's death in 1809, but in response to a premature report of that event in 1804. The revival of Classical-period music has thus far given Cherubini short shrift, which is surprising in connection with the man whom Beethoven called the greatest living composer. Maybe this German release, by the veteran historical-instrument ensemble Cappella Coloniensis, will stimulate fresh activity. The chief attraction here is the seldom recorded tribute to Haydn. It's a wonderful work, with an unorthodox form that seems to bespeak strong feeling. Cherubini worked from an existing funeral text by Masonic author Louis Guillemain de Saint-Victor, but the shape of the piece is his own. He opens with a slow, profound polyphonic introduction that not only must have appealed to Beethoven but perhaps even influenced the idiom of his late works. After that come three short verses set as orchestral recitatives, and then a multipart finale for three solo voices and orchestra, beginning with an inadequately translated line of recitative – "Both [Haydn's name and his soul] are victors over death and time" – that gives forth onto a kind of noble melody that again evokes Beethoven. The music ought to be of interest far beyond those specifically interested in Beethoven's era, and it could serve a memorial purpose for any musician. The Cappella Coloniensis, here and in the more common Symphony in D major that rounds out the disc, catches the majestic yet personal tone of the music in purring string textures and doesn't go beyond the medium-sized dimensions of the music. The soprano lines of Marilyn Schmiege are less angelic than might be desired here; the editing of the booklet (at least in its English-language sections; French and German are also available) is poor, and the division between track 4 and track 5 is imprecisely done. With these minor complaints out of the way, the purchase of this album can be enthusiastically recommended.

Review by James Manheim, Allmusic.com

Cappella Coloniensis; Gabriele Ferro - Luigi Cherubini: Chant sur la mort de Joseph Haydn; Symphony in D major (2009)



Marilyn Schmiege, soprano
Martyn Hill, tenor
Paolo Barbacini, tenor
Cappella Coloniensis
Gabriele Ferro, conductor

Recorded June 10, 1981 at Corvey, Abtei, Kaiserempore.

Tracklist:

Luigi Cherubini (1760-1842)

Chant sur la mort de Joseph Haydn
01. Introduction (8:42)
02. Recitativo: Amans des nobles Soeurs (1:47)
03. Recitativo: À ses tendres accents (1:50)
04. Recitativo: Non ce feu créateur (0:26)
05. Maestoso: L'un et l'autre est vainqueur (9:08)

Symphony in D major
06. I. Largo (10:42)
07. II. Larghetto cantabile (8:01)
08. III. Minuetto (5:20)
09. IV. Finale. Allegro (5:01)


Exact Audio Copy V1.1 from 23. June 2015

EAC extraction logfile from 3. November 2015, 0:15

Capella Coloniensis, Gabriele Ferro / Cherubini - Chant sur la mort de Joseph Haydn

Used drive : HL-DT-STDVDRAM GU70N Adapter: 1 ID: 0

Read mode : Secure
Utilize accurate stream : Yes
Defeat audio cache : Yes
Make use of C2 pointers : No

Read offset correction : 48
Overread into Lead-In and Lead-Out : No
Fill up missing offset samples with silence : Yes
Delete leading and trailing silent blocks : No
Null samples used in CRC calculations : Yes
Used interface : Native Win32 interface for Win NT & 2000

Used output format : User Defined Encoder
Selected bitrate : 128 kBit/s
Quality : High
Add ID3 tag : No
Command line compressor : C:\Program Files (x86)\Exact Audio Copy\Flac\flac.exe
Additional command line options : -V -8 -T "Date=%year%" -T "Genre=%genre%" %source%


TOC of the extracted CD

Track | Start | Length | Start sector | End sector
––––––––––––––––––––––––––––-
1 | 0:00.00 | 8:42.03 | 0 | 39152
2 | 8:42.03 | 1:46.62 | 39153 | 47164
3 | 10:28.65 | 1:49.48 | 47165 | 55387
4 | 12:18.38 | 0:25.63 | 55388 | 57325
5 | 12:44.26 | 9:07.62 | 57326 | 98412
6 | 21:52.13 | 10:41.51 | 98413 | 146538
7 | 32:33.64 | 8:00.60 | 146539 | 182598
8 | 40:34.49 | 5:20.35 | 182599 | 206633
9 | 45:55.09 | 5:01.24 | 206634 | 229232


Range status and errors

Selected range

Filename C:\temp\Cherubini - Chant sur la mort de Joseph Haydn\Cherubini - Chant sur la mort de Joseph Haydn.wav

Peak level 92.7 %
Extraction speed 5.0 X
Range quality 100.0 %
Test CRC E8449313
Copy CRC E8449313
Copy OK

No errors occurred


AccurateRip summary

Track 1 accurately ripped (confidence 1) [B573CE75] (AR v2)
Track 2 accurately ripped (confidence 1) [A581766D] (AR v2)
Track 3 accurately ripped (confidence 1) [46AB0273] (AR v2)
Track 4 accurately ripped (confidence 1) [01A98625] (AR v2)
Track 5 accurately ripped (confidence 1) [E490C528] (AR v2)
Track 6 accurately ripped (confidence 1) [C3950DF0] (AR v2)
Track 7 accurately ripped (confidence 1) [34AA8C65] (AR v2)
Track 8 accurately ripped (confidence 1) [67351778] (AR v2)
Track 9 accurately ripped (confidence 1) [E495C324] (AR v2)

All tracks accurately ripped

End of status report

==== Log checksum D5477226B15DB57345305E86EA733C2637448FD4DE698390D34B2C663C8EE8F8 ====

foobar2000 1.2 / Dynamic Range Meter 1.1.1
log date: 2018-10-08 00:34:24

––––––––––––––––––––––––––––––––––––––––
Analyzed: Cappella Coloniensis, Gabriele Ferro / Cherubini - Chant sur la mort de Joseph Haydn
––––––––––––––––––––––––––––––––––––––––

DR Peak RMS Duration Track
––––––––––––––––––––––––––––––––––––––––
DR14 -1.44 dB -22.41 dB 8:42 01-Chant sur la mort de Joseph Haydn - Introduction
DR12 -6.15 dB -23.97 dB 1:47 02-Chant sur la mort de Joseph Haydn - Recitativo: Amans des nobles Soeurs
DR14 -4.39 dB -25.23 dB 1:50 03-Chant sur la mort de Joseph Haydn - Recitativo: À ses tendres accents
DR10 -2.70 dB -18.47 dB 0:26 04-Chant sur la mort de Joseph Haydn - Recitativo: Non ce feu créateur
DR12 -1.33 dB -19.02 dB 9:08 05-Chant sur la mort de Joseph Haydn - Maestoso: L'un et l'autre est vainqueur
DR13 -0.75 dB -18.67 dB 10:42 06-Symphony in D major - I. Largo
DR13 -2.49 dB -21.76 dB 8:01 07-Symphony in D major - II. Larghetto cantabile
DR12 -2.36 dB -19.65 dB 5:20 08-Symphony in D major - III. Minuetto
DR11 -0.66 dB -17.16 dB 5:01 09-Symphony in D major - IV. Finale. Allegro
––––––––––––––––––––––––––––––––––––––––

Number of tracks: 9
Official DR value: DR12

Samplerate: 44100 Hz
Channels: 2
Bits per sample: 16
Bitrate: 580 kbps
Codec: FLAC
================================================================================

Cappella Coloniensis; Gabriele Ferro - Luigi Cherubini: Chant sur la mort de Joseph Haydn; Symphony in D major (2009)

All thanks to original releaser - A-Z

More interesting music in My Blog