Tags
Language
Tags

Galahad - Beyond the Realms of Euphoria (2012)

Posted By: gribovar
Galahad - Beyond the Realms of Euphoria (2012)

Galahad - Beyond the Realms of Euphoria (2012)
EAC Rip | FLAC (image+.cue+log) - 382 MB | MP3 CBR 320 kbps (LAME 3.93) - 131 MB | Covers - 129 MB
Genre: Progressive Rock | RAR 3% Rec. | Label: Avalon Records (GHCD11)

This was the second Galahad studio album released in 2012. Once again expertly recorded and mixed by Karl Groom at Thin Ice and showing a similar diverse range of styles and influences to 'Battle Scars', and some! 'Euphoria' comes wrapped in a clear, pristine, often widescreen production punctuated by occasional passages of quiet beauty and delicate sensitivity. The vibrant and colourful cover art is taken from a portrait 'Harmony', painted by up and coming young British artist Emma Grzonkowski.

Tracklist:
01. Salvation I - Overture
02. Salvation II - Judgement Day
03. Guardian Angel
04. Secret Kingdoms…
05. … And Secret Worlds
06. Waves
07. Guardian Angel - Reprise
08. Richelieu's Prayer 2012

Total time: 55:52

Exact Audio Copy V1.0 beta 3 from 29. August 2011

Отчёт EAC об извлечении, выполненном 28. декабря 2012, 22:14

Galahad / Beyond the Realms of Euphoria

Дисковод: HL-DT-STDVDRAM GSA-H42L Adapter: 0 ID: 0

Режим чтения : Достоверность
Использование точного потока : Да
Отключение кэша аудио : Да
Использование указателей C2 : Нет

Коррекция смещения при чтении : 667
Способность читать области Lead-in и Lead-out : Нет
Заполнение пропущенных сэмплов тишиной : Да
Удаление блоков с тишиной в начале и конце : Нет
При вычислениях CRC использовались нулевые сэмплы : Да
Интерфейс : Встроенный Win32-интерфейс для Win NT/2000

Выходной формат : Пользовательский кодировщик
Выбранный битрейт : 896 kBit/s
Качество : Высокий
Добавление ID3-тега : Нет
Утилита сжатия : C:\Program Files\Exact Audio Copy\Flac\flac.exe
Дополнительные параметры : -V -8 -T "Date=%year%" -T "Genre=%genre%" %source%


TOC извлечённого CD

Трек | Старт | Длительность | Начальный сектор | Конечный сектор
––––––––––––––––––––––––––––––––––-
1 | 0:00.00 | 4:11.46 | 0 | 18870
2 | 4:11.46 | 6:08.39 | 18871 | 46509
3 | 10:20.10 | 10:31.62 | 46510 | 93896
4 | 20:51.72 | 5:31.09 | 93897 | 118730
5 | 26:23.06 | 7:26.43 | 118731 | 152223
6 | 33:49.49 | 7:14.01 | 152224 | 184774
7 | 41:03.50 | 6:08.47 | 184775 | 212421
8 | 47:12.22 | 8:40.06 | 212422 | 251427


Характеристики диапазона извлечения и сообщения об ошибках

Выбранный диапазон

Имя файла D:\AND\CD Images\New\Galahad - 2012 - Beyond the Realms of Euphoria [Flac]\Galahad - Beyond the Realms of Euphoria.wav

Пиковый уровень 96.6 %
Скорость извлечения 7.1 X
Качество диапазона 100.0 %
CRC теста 0C5C34C3
CRC копии 0C5C34C3
Копирование… OK

Ошибок не произошло


AccurateRip: сводка

Трек 1 : извлечено точно (доверие 2) [3894EB69] (AR v2)
Трек 2 : извлечено точно (доверие 2) [FACDB116] (AR v2)
Трек 3 : извлечено точно (доверие 2) [DE080937] (AR v2)
Трек 4 : извлечено точно (доверие 2) [6695D3A2] (AR v2)
Трек 5 : извлечено точно (доверие 2) [2D60CC58] (AR v2)
Трек 6 : извлечено точно (доверие 2) [D947A29F] (AR v2)
Трек 7 : извлечено точно (доверие 2) [A2D18DA7] (AR v2)
Трек 8 : извлечено точно (доверие 2) [4172383D] (AR v2)

Все треки извлечены точно

Конец отчёта

==== Контрольная сумма отчёта 0BFDBEE6025159F997ABCD7E17BBDD16B79BCA3F607C0FB2DFF94671A598E0D1 ====

[CUETools log; Date: 02.04.2020 16:36:17; Version: 2.1.4]
[CTDB TOCID: 8VfQjvlVDSZgNmwFyjcSi6BFW9k-] found.
Track | CTDB Status
1 | (32/35) Accurately ripped
2 | (32/35) Accurately ripped
3 | (32/35) Accurately ripped
4 | (32/35) Accurately ripped
5 | (32/35) Accurately ripped
6 | (32/35) Accurately ripped
7 | (32/35) Accurately ripped
8 | (31/35) Accurately ripped
[AccurateRip ID: 0010764a-006fa039-5c0d1808] found.
Track [ CRC | V2 ] Status
01 [ca37530e|3894eb69] (00+19/26) Accurately ripped
02 [c5c38138|facdb116] (00+19/26) Accurately ripped
03 [8e13c7b2|de080937] (00+18/25) Accurately ripped
04 [d4549cd8|6695d3a2] (00+19/26) Accurately ripped
05 [029e680d|2d60cc58] (00+19/26) Accurately ripped
06 [ac2e7055|d947a29f] (00+19/26) Accurately ripped
07 [f4952fb5|a2d18da7] (00+19/26) Accurately ripped
08 [4961bb30|4172383d] (00+19/26) Accurately ripped

Track Peak [ CRC32 ] [W/O NULL] [ LOG ]
– 96,6 [0C5C34C3] [5F36958C] CRC32
01 96,6 [A401E4BB] [A46DC338]
02 96,6 [D96AE512] [58EBA96A]
03 96,6 [9FF2B4FC] [6C363FAC]
04 96,6 [F8DDD9F3] [436AA892]
05 96,6 [F8B9D502] [A18369A6]
06 96,6 [66A3014D] [5E991695]
07 96,6 [40CB27F2] [15455462]
08 96,6 [B9BD2D7E] [93F7A97B]

Thanks to Andar

See also:
Galahad - 2 Studio Albums (1991-1995) [Japanese Editions]