Subcategories

Garbage - Bleed Like Me (2005)

Posted By: socola78
Garbage - Bleed Like Me (2005)

Garbage - Bleed Like Me (2005)
Alternative Rock | EAC Rip | FLAC + CUE + LOG + No Cover | 47 Min | 330.8 Mb
Label: Warner Bros. Records | Released: April 11, 2005

Bleed Like Me is the fourth album by alternative rock group Garbage. It was released in April 2005 worldwide, following critical appraisal and unexpectedly high chart positions for its lead-off single "Why Do You Love Me", which entered the Billboard Hot 100 and debuted in the Top 10 of the UK singles chart.

TrackList
01. Bad Boyfriend – 3:46
02. Run Baby Run – 3:58
03. Right Between the Eyes – 3:55
04. Why Do You Love Me – 3:54
05. Bleed Like Me – 4:01
06. Metal Heart – 3:59
07. Sex Is Not the Enemy – 3:06
08. It's All Over but the Crying – 4:39
09. Boys Wanna Fight – 4:16
10. Why Don't You Come Over – 3:25
11. Happy Home – 6:00

Exact Audio Copy V0.99 prebeta 5 from 4. May 2009

Отчёт EAC об извлечении, выполненном 17. декабря 2009, 23:18

Garbage / Bleed Like Me

Дисковод: TEAC DV-W516GD Adapter: 1 ID: 0

Режим чтения : Достоверность
Использование точного потока : Да
Отключение кэша аудио : Да
Использование указателей C2 : Нет

Коррекция смещения при чтении : 6
Способность читать области Lead-in и Lead-out : Нет
Заполнение пропущенных сэмплов тишиной : Да
Удаление блоков с тишиной в начале и конце : Нет
При вычислениях CRC использовались нулевые сэмплы : Да
Интерфейс : Установленный внешний ASPI-интерфейс

Выходной формат : Внутренние WAV-операции
Формат сэмплов : 44.100 Гц; 16 бит; стерео


TOC извлечённого CD

Трек | Старт | Длительность | Начальный сектор | Конечный сектор
––––––––––––––––––––––––––––––––––-
1 | 0:00.00 | 3:46.50 | 0 | 16999
2 | 3:46.50 | 3:58.10 | 17000 | 34859
3 | 7:44.60 | 3:56.00 | 34860 | 52559
4 | 11:40.60 | 3:54.17 | 52560 | 70126
5 | 15:35.02 | 4:01.65 | 70127 | 88266
6 | 19:36.67 | 3:59.10 | 88267 | 106201
7 | 23:36.02 | 3:06.28 | 106202 | 120179
8 | 26:42.30 | 4:39.22 | 120180 | 141126
9 | 31:21.52 | 4:16.43 | 141127 | 160369
10 | 35:38.20 | 3:25.70 | 160370 | 175814
11 | 39:04.15 | 6:00.45 | 175815 | 202859


Характеристики диапазона извлечения и сообщения об ошибках

Выбранный диапазон

Имя файла D:\Temp\Garbage - Bleed Like Me\Garbage - Bleed Like Me.wav

Пиковый уровень 100.0 %
Качество диапазона 100.0 %
CRC копии 7DCF6990
Копирование… OK

Ошибок не произошло


AccurateRip: сводка

Трек 1 точное извлечение (доверие 132) [701F409E]
Трек 2 точное извлечение (доверие 132) [13079EB0]
Трек 3 точное извлечение (доверие 131) [93A8C86E]
Трек 4 точное извлечение (доверие 132) [6878378D]
Трек 5 точное извлечение (доверие 132) [CBB05EF8]
Трек 6 точное извлечение (доверие 129) [52A74EAD]
Трек 7 точное извлечение (доверие 131) [A9F58BF9]
Трек 8 точное извлечение (доверие 131) [B42DC5A2]
Трек 9 точное извлечение (доверие 131) [FD10CB91]
Трек 10 точное извлечение (доверие 132) [51CF1F67]
Трек 11 точное извлечение (доверие 130) [294966A5]

Все треки извлечены точно

Конец отчёта