Tags
Language
Tags

Gary Burton - The New Quartet (1973) [Re-Up]

Posted By: Designol
Gary Burton - The New Quartet (1973) [Re-Up]

Gary Burton - The New Quartet (1973)
EAC | FLAC | Tracks (Cue&Log) ~ 258 Mb | Mp3 (CBR320) ~ 109 Mb | Scans included
Post-Bop, Vibraphone/Marimba Jazz | Label: ECM | # ECM 1030, 835 002-2 | 00:46:26

Not only does this LP feature a "new quartet," but it marks the beginning of Gary Burton's longtime association with ECM. In general, Burton's ECM dates were more introverted and laid-back than his more diverse Atlantic releases, but they always had their moments of interest. On this set, the vibraphonist, guitarist Mick (then known as Michael) Goodrick, bassist Abraham Laboriel, and drummer Harry Blazer perform numbers by Chick Corea ("Open Your Eyes, You Can Fly"), Keith Jarrett ("Coral"), Gordon Beck, Carla Bley, and Mike Gibbs, in addition to Burton's "Brownout." Intriguing if not essential music.

Review by Scott Yanow, Allmusic.com

One needs only to catch the first few licks of “Open Your Eyes, You Can Fly” to know this album represents an era that can never be recaptured. Burton does wonders with the Chick Corea tune, lifting its upbeat soul to the greatest heights of creative pleasure. One can almost taste the freshness of his sound, the sheer newness of vision and synergy of musicianship ingrained into every moment of this phenomenal record. This was another early disc that managed to fall under my radar until I sought to review it. Burton is always a supreme joy to listen to, and with this, his second ECM appearance, he certainly made a profound statement. Burton himself contributes one composition, the enchanting “Brownout,” which takes full advantage of the rhythmic precision of his backing trio for a deft volley of restraint and abandon. Two Gordon Beck tunes provide the most robust flavors in this thickening stew, balancing the smooth full-ensemble nosh of “Tying Up Loose Ends” with the infectious full course of blistering key changes and nimble flair that is “Mallet Man,” the album’s centerpiece. The ballads are haunting and moody. “Coral” (Keith Jarrett) proves just how soulful vibes can be, while “Olhos De Gato” (Carla Bley), with its seedy undercurrent and humid climate, slinks like its namesake, stalking the edges of the night. Two Mike Gibbs tunes, “Four Or Less” and “Nonsequence,” round out the set on a more playful note, making dramatic use of pauses and a wider variety of textures.

Gary Burton is synonymous with the vibes. And while I had long been one of countless admirers of his technical and melodic acuity, this album was nothing short of a revelation for me. The technique is flawless all around and glistens with Burton’s Midas touch. He contacts his instrument like fingers walking up a spine, never missing a single nerve along the way. Yet one cannot commend this album without also praising Goodrick’s phenomenal guitar work, Laboriel’s quick-witted ornaments, Blazer’s unrelenting dedication to the moment, and the astounding unity the ensemble as a whole manages to uphold. The overall balance comes across as joyously democratic, and all with a fresh-off-the-boat sound that surprises at every turn. There isn’t a single errant note, gesture, or idea to be found on The New Quartet. From start to finish, an inimitable achievement.

Review by Tyran Grillo, ECMReviews.com

Gary Burton - The New Quartet (1973) [Re-Up]



Personnel:

Gary Burton (vibraphone)
Michael Goodrick (guitar)
Abraham Laboriel (bass)
Harry Blazer (drums)

Recorded at Aengus Studio, Fayville, Massachusetts on March 5 & 6, 1973.

Tracklist:

01. Open Your Eyes, You Can Fly (6:43)
02. Coral (4:12)
03. Tying Up Those Loose Ends (5:17)
04. Brownout (6:38)
05. Olhos De Gato (5:40)
06. Mallet Man (7:13)
07. Four Or Less (6:13)
08. Nonsequence (4:30)


EAC extraction logfile from 14. September 2007, 13:38 for CD
Gary Burton / The New Quartet

Used drive : HL-DT-STDVDRAM GSA-4160B Adapter: 1 ID: 1
Read mode : Secure with NO C2, accurate stream, disable cache
Read offset correction : 667
Overread into Lead-In and Lead-Out : No

Used output format : C:\Program Files\FLAC\flac.exe (User Defined Encoder)
128 kBit/s
Additional command line options : -8 -V -T "ARTIST=%a" -T "TITLE=%t" -T "ALBUM=%g" -T "DATE=%y" -T "TRACKNUMBER=%n" -T "GENRE=%m" -T "COMMENT=EAC FLAC -8" %s

Other options :
Fill up missing offset samples with silence : Yes
Delete leading and trailing silent blocks : No
Installed external ASPI interface


Track 1
Filename C:\Documents and Settings\andre. beat\Desktop\dsa\01 - Open Your Eyes, You Can Fly.wav

Pre-gap length 0:00:02.42

Peak level 68.6 %
Track quality 100.0 %
Test CRC 39C4B602
Copy CRC 39C4B602
Copy OK

Track 2
Filename C:\Documents and Settings\andre. beat\Desktop\dsa\02 - Coral.wav

Pre-gap length 0:00:04.80

Peak level 59.1 %
Track quality 100.0 %
Test CRC 79CADC48
Copy CRC 79CADC48
Copy OK

Track 3
Filename C:\Documents and Settings\andre. beat\Desktop\dsa\03 - Tying Up Those Loose Ends.wav

Pre-gap length 0:00:03.90

Peak level 69.9 %
Track quality 99.9 %
Test CRC 5E9B5910
Copy CRC 5E9B5910
Copy OK

Track 4
Filename C:\Documents and Settings\andre. beat\Desktop\dsa\04 - Brownout.wav

Pre-gap length 0:00:07.00

Peak level 66.0 %
Track quality 100.0 %
Test CRC B8BC42FC
Copy CRC B8BC42FC
Copy OK

Track 5
Filename C:\Documents and Settings\andre. beat\Desktop\dsa\05 - Olhos De Gato.wav

Pre-gap length 0:00:06.20

Peak level 67.6 %
Track quality 99.9 %
Test CRC 9E7EBAC3
Copy CRC 9E7EBAC3
Copy OK

Track 6
Filename C:\Documents and Settings\andre. beat\Desktop\dsa\06 - Mallet Man.wav

Pre-gap length 0:00:03.80

Peak level 73.7 %
Track quality 99.9 %
Test CRC EAFFADA5
Copy CRC EAFFADA5
Copy OK

Track 7
Filename C:\Documents and Settings\andre. beat\Desktop\dsa\07 - Four Or Less.wav

Pre-gap length 0:00:03.60

Peak level 63.3 %
Track quality 100.0 %
Test CRC C5EEF398
Copy CRC C5EEF398
Copy OK

Track 8
Filename C:\Documents and Settings\andre. beat\Desktop\dsa\08 - Nonsequence.wav

Pre-gap length 0:00:03.66

Peak level 83.6 %
Track quality 100.0 %
Test CRC 3393C077
Copy CRC 3393C077
Copy OK

No errors occured


End of status report

[CUETools log; Date: 08.04.2018 21:38:56; Version: 2.1.4]
Pregap length 00:00:32.
[CTDB TOCID: jwfMSASMUFoNURFVx4IM5kWHFho-] found.
Track | CTDB Status
1 | (6/6) Accurately ripped
2 | (6/6) Accurately ripped
3 | (6/6) Accurately ripped
4 | (6/6) Accurately ripped
5 | (6/6) Accurately ripped
6 | (6/6) Accurately ripped
7 | (6/6) Accurately ripped
8 | (6/6) Accurately ripped
[AccurateRip ID: 000e5e48-00601943-600ae208] found.
Track [ CRC | V2 ] Status
01 [9b6a83d6|544ccab0] (0+0/3) No match
02 [6286052d|b82e28b4] (0+0/2) No match
03 [4494a4d7|7c77ba4a] (0+0/2) No match
04 [5b15acc3|b390b754] (0+0/2) No match
05 [3b8bf1da|79bbd000] (0+0/2) No match
06 [752e6650|b5578b51] (0+0/2) No match
07 [382afce6|7a5c21d2] (0+0/2) No match
08 [7411ab1f|57952760] (0+0/2) No match
Offsetted by -1907:
01 [4ef0c1e4] (0/3) No match (V2 was not tested)
02 [e9ac2df2] (0/2) No match (V2 was not tested)
03 [18fe43b6] (0/2) No match (V2 was not tested)
04 [d9daf671] (0/2) No match (V2 was not tested)
05 [fcc1a924] (0/2) No match (V2 was not tested)
06 [e5188c50] (0/2) No match (V2 was not tested)
07 [41c409fb] (0/2) No match (V2 was not tested)
08 [5a335605] (0/2) No match (V2 was not tested)

Track Peak [ CRC32 ] [W/O NULL] [ LOG ]
– 83,6 [691C4AB6] [A9B6CFC4]
01 68,6 [39C4B602] [6FE8B8B6] CRC32
02 59,1 [79CADC48] [8443FEBA] CRC32
03 69,9 [5E9B5910] [D5525F67] CRC32
04 66,0 [B8BC42FC] [269AB1A5] CRC32
05 67,6 [9E7EBAC3] [11774C99] CRC32
06 73,7 [EAFFADA5] [59D3F9A1] CRC32
07 63,3 [C5EEF398] [A10EED6D] CRC32
08 83,6 [3393C077] [8FA36C05] CRC32

foobar2000 1.2 / Dynamic Range Meter 1.1.1
log date: 2018-04-08 21:24:17

––––––––––––––––––––––––––––––––––––––––
Analyzed: Gary Burton / The New Quartet
––––––––––––––––––––––––––––––––––––––––

DR Peak RMS Duration Track
––––––––––––––––––––––––––––––––––––––––
DR11 -3.27 dB -16.98 dB 6:43 01-Open Your Eyes, You Can Fly
DR13 -4.57 dB -20.78 dB 4:12 02-Coral
DR11 -3.10 dB -16.67 dB 5:17 03-Tying Up Those Loose Ends
DR12 -3.60 dB -17.98 dB 6:38 04-Brownout
DR11 -3.39 dB -18.20 dB 5:40 05-Olhos De Gato
DR11 -2.64 dB -16.31 dB 7:13 06-Mallet Man
DR11 -3.97 dB -16.69 dB 6:13 07-Four Or Less
DR11 -1.55 dB -15.27 dB 4:30 08-Nonsequence
––––––––––––––––––––––––––––––––––––––––

Number of tracks: 8
Official DR value: DR12

Samplerate: 44100 Hz
Channels: 2
Bits per sample: 16
Bitrate: 828 kbps
Codec: FLAC
================================================================================

Gary Burton - The New Quartet (1973) [Re-Up]

Gary Burton - The New Quartet (1973) [Re-Up]

All thanks to original releaser

More interesting music in My Blog