Subcategories

Gary Burton / Chick Corea - Duet (1979) {ECM 1140}

Posted By: tiburon
Gary Burton / Chick Corea - Duet (1979) {ECM 1140}

Gary Burton / Chick Corea - Duet (1979) {ECM 1140}
EAC 0.99pb4 | FLAC tracks level 8 | Cue+Log+M3U | Full Scans 300dpi | 230MB + 5% Recovery
MP3 CBR 320 Kbps | 130MB + 5% Recovery
Genre: Jazz

Vibraphonist Gary Burton and pianist Chick Corea had first recorded together in 1972 for Crystal Silence (released under Corea's name). Six years later, they teamed up for renditions of two Steve Swallow tunes, plus Corea's lengthy "Duet Suite," four of his sketchy "Children's Songs," "Song to Gayle" and his classic "La Fiesta." This subtle set finds Burton and Corea consistently inspiring each other through melodic and very spontaneous improvising. Well worth a close listen.
Track List
01. Duet Suite
02. Children's Song № 15
03. Children's Song № 2
04. Children's Song № 5
05. Children's Song № 6
06. Radio
07. Song To Gayle
08. Never
09. La Fiesta

musicians

Gary Burton - vibraphone
Chick Corea - piano


Exact Audio Copy V0.99 prebeta 4 from 23. January 2008

EAC extraction logfile from 12. April 2008, 22:24

Gary Burton-Chick Corea / Duet

Used drive : PLEXTOR CD-R PREMIUM2 Adapter: 1 ID: 1

Read mode : Secure
Utilize accurate stream : Yes
Defeat audio cache : Yes
Make use of C2 pointers : No

Read offset correction : 30
Overread into Lead-In and Lead-Out : No
Fill up missing offset samples with silence : Yes
Delete leading and trailing silent blocks : No
Null samples used in CRC calculations : Yes
Used interface : Installed external ASPI interface
Gap handling : Appended to previous track

Used output format : User Defined Encoder
Selected bitrate : 32 kBit/s
Quality : High
Add ID3 tag : No
Command line compressor : C:\Programmi\FLAC\flac.exe
Additional command line options : -8 -V -T "ARTIST=%a" -T "TITLE=%t" -T "ALBUM=%g" -T "DATE=%y" -T "TRACKNUMBER=%n" -T "GENRE=%m" -T "COMMENT=EAC FLAC -8" %s


TOC of the extracted CD

Track | Start | Length | Start sector | End sector
––––––––––––––––––––––––––––-
1 | 0:00.33 | 15:41.25 | 33 | 70632
2 | 15:41.58 | 1:15.25 | 70633 | 76282
3 | 16:57.08 | 0:56.67 | 76283 | 80549
4 | 17:54.00 | 1:14.43 | 80550 | 86142
5 | 19:08.43 | 2:13.70 | 86143 | 96187
6 | 21:22.38 | 5:15.00 | 96188 | 119812
7 | 26:37.38 | 7:13.57 | 119813 | 152344
8 | 33:51.20 | 7:37.45 | 152345 | 186664
9 | 41:28.65 | 10:17.70 | 186665 | 233009


Track 1

Filename C:\My Rip\01 - Duet Suite.wav

Pre-gap length 0:00:02.44

Peak level 80.1 %
Track quality 100.0 %
Test CRC EED0B344
Copy CRC EED0B344
Track not present in AccurateRip database
Copy OK

Track 2

Filename C:\My Rip\02 - Children's Song 15.wav

Pre-gap length 0:00:03.00

Peak level 27.7 %
Track quality 100.0 %
Test CRC E86AEF0C
Copy CRC E86AEF0C
Track not present in AccurateRip database
Copy OK

Track 3

Filename C:\My Rip\03 - Children's Song 2.wav

Pre-gap length 0:00:01.44

Peak level 47.6 %
Track quality 100.0 %
Test CRC 6139ABD9
Copy CRC 6139ABD9
Track not present in AccurateRip database
Copy OK

Track 4

Filename C:\My Rip\04 - Children's Song 5.wav

Pre-gap length 0:00:01.46

Peak level 45.2 %
Track quality 100.0 %
Test CRC DE5D33CF
Copy CRC DE5D33CF
Track not present in AccurateRip database
Copy OK

Track 5

Filename C:\My Rip\05 - Children's Song 6.wav

Pre-gap length 0:00:02.64

Peak level 59.3 %
Track quality 100.0 %
Test CRC A30A14BE
Copy CRC A30A14BE
Track not present in AccurateRip database
Copy OK

Track 6

Filename C:\My Rip\06 - Radio.wav

Pre-gap length 0:00:03.46

Peak level 58.3 %
Track quality 100.0 %
Test CRC FB841B96
Copy CRC FB841B96
Track not present in AccurateRip database
Copy OK

Track 7

Filename C:\My Rip\07 - Song To Gayle.wav

Pre-gap length 0:00:03.77

Peak level 61.3 %
Track quality 100.0 %
Test CRC CE007939
Copy CRC CE007939
Track not present in AccurateRip database
Copy OK

Track 8

Filename C:\My Rip\08 - Never.wav

Pre-gap length 0:00:03.36

Peak level 59.4 %
Track quality 99.9 %
Test CRC 30F7A447
Copy CRC 30F7A447
Track not present in AccurateRip database
Copy OK

Track 9

Filename C:\My Rip\09 - La Fiesta.wav

Pre-gap length 0:00:03.76

Peak level 93.5 %
Track quality 100.0 %
Test CRC F6277091
Copy CRC F6277091
Track not present in AccurateRip database
Copy OK


None of the tracks are present in the AccurateRip database

No errors occurred

End of status report

Gary Burton / Chick Corea - Duet (1979) {ECM 1140}
Gary Burton / Chick Corea - Duet (1979) {ECM 1140}


Thanks to the original ripper