Tags
Language
Tags

Georg Solti, Chicago Symphony Orchestra - Mendelssohn: Symphonies Nos. 3 & 4 (1986)

Posted By: ArlegZ
Georg Solti, Chicago Symphony Orchestra - Mendelssohn: Symphonies Nos. 3 & 4 (1986)

Georg Solti, Chicago Symphony Orchestra - Mendelssohn: Symphonies Nos. 3 & 4 (1986)
EAC | FLAC | Image (Cue & Log) ~ 313 Mb | Total time: 70:14 | Scans included
Classical | Label: Decca | 414 665-2 | Recorded: 1985

These are both exciting, high-powered performances very typical of Sir Georg. The dazzling qualities of the Chicago orchestra in achieving knife-edged precision of ensemble shine out consistently, and anyone who still thinks that Mendelssohn has Victorian cobwebs on him could hardly find more striking proof otherwise. The performances certainly bring out the exuberance of the inspiration, with the Scottish Symphony made almost as bright and athletic as the Italian.

Performer:
Chicago Symphony Orchestra
Sir Georg Solti, conductor

Track List:
Symphony No.3 in A Minor, Op.56 "Scottish"
01. Andante con moto
02. Allegro un poco agitato
03. Scherzo: Vivace non troppo
04. Adagio
05. Allegro vivacissimo
06. Allegro maestosso assai
Symphony No.4 in A Major, Op.90 "Italian"
07. Allegro vivace
08. Andante con motto
09. Con moto moderato
10. Salterello: Presto


Exact Audio Copy V1.6 from 23. October 2020

EAC extraction logfile from 3. January 2021, 9:36

Felix Mendelssohn / Symphonies No.3 ''Scottish'' & No.4 ''Italian'' -Chicago Symphony Orchestra - Sir Georg Solti

Used drive : HL-DT-STDVDRAM GH24NSD5 Adapter: 1 ID: 0

Read mode : Secure
Utilize accurate stream : Yes
Defeat audio cache : Yes
Make use of C2 pointers : No

Read offset correction : 6
Overread into Lead-In and Lead-Out : No
Fill up missing offset samples with silence : Yes
Delete leading and trailing silent blocks : No
Null samples used in CRC calculations : Yes
Used interface : Native Win32 interface for Win NT & 2000

Used output format : User Defined Encoder
Selected bitrate : 1024 kBit/s
Quality : High
Add ID3 tag : No
Command line compressor : C:\Program Files (x86)\Exact Audio Copy\FLAC\FLAC.EXE
Additional command line options : -6 -V -T "ARTIST=%artist%" -T "TITLE=%title%" -T "ALBUM=%albumtitle%" -T "DATE=%year%" -T "TRACKNUMBER=%tracknr%" -T "GENRE=%genre%" -T "COMMENT=%comment%" -T "BAND=%albuminterpret%" -T "ALBUMARTIST=%albuminterpret%" -T "COMPOSER=%composer%" %haslyrics%–tag-from-file=LYRICS="%lyricsfile%"%haslyrics% -T "DISCNUMBER=%cdnumber%" -T "TOTALDISCS=%totalcds%" -T "TOTALTRACKS=%numtracks%" %hascover%–picture="%coverfile%"%hascover% %source% -o %dest%


TOC of the extracted CD

Track | Start | Length | Start sector | End sector
––––––––––––––––––––––––––––-
1 | 0:00.33 | 3:31.07 | 33 | 15864
2 | 3:31.40 | 12:25.00 | 15865 | 71739
3 | 15:56.40 | 4:20.10 | 71740 | 91249
4 | 20:16.50 | 10:57.68 | 91250 | 140592
5 | 31:14.43 | 6:52.37 | 140593 | 171529
6 | 38:07.05 | 2:05.13 | 171530 | 180917
7 | 40:12.18 | 10:03.67 | 180918 | 226209
8 | 50:16.10 | 6:45.20 | 226210 | 256604
9 | 57:01.30 | 7:30.60 | 256605 | 290414
10 | 64:32.15 | 5:41.30 | 290415 | 316019


Range status and errors

Selected range

Filename I:\Rips\Mendelssohn - Symphonies Nos. 3 & 4 - Solti\Felix Mendelssohn - Symphonies No.3 ''Scottish'' & No.4 ''Italian'' -Chicago Symphony Orchestra - Sir Georg Solti.wav

Peak level 93.6 %
Extraction speed 2.0 X
Range quality 100.0 %
Test CRC 38E5C0F0
Copy CRC 38E5C0F0
Copy OK

No errors occurred


AccurateRip summary

Track 1 accurately ripped (confidence 53) [7772E7EB] (AR v2)
Track 2 accurately ripped (confidence 53) [0D6FCE99] (AR v2)
Track 3 accurately ripped (confidence 53) [91491931] (AR v2)
Track 4 accurately ripped (confidence 52) [31F03700] (AR v2)
Track 5 accurately ripped (confidence 52) [C2C9E8EC] (AR v2)
Track 6 accurately ripped (confidence 53) [557F8074] (AR v2)
Track 7 accurately ripped (confidence 55) [B23743A5] (AR v2)
Track 8 accurately ripped (confidence 53) [B1CB1F8E] (AR v2)
Track 9 accurately ripped (confidence 51) [0C522631] (AR v2)
Track 10 accurately ripped (confidence 49) [86155B2F] (AR v2)

All tracks accurately ripped

End of status report

–– CUETools DB Plugin V2.1.6

[CTDB TOCID: yc6nuLDIcBXk7V.vreAi2gUFO_A-] found
Submit result: yc6nuLDIcBXk7V.vreAi2gUFO_A- has been confirmed
Track | CTDB Status
1 | (167/167) Accurately ripped
2 | (165/167) Accurately ripped
3 | (166/167) Accurately ripped
4 | (166/167) Accurately ripped
5 | (164/167) Accurately ripped
6 | (166/167) Accurately ripped
7 | (162/167) Accurately ripped
8 | (160/167) Accurately ripped
9 | (165/167) Accurately ripped
10 | (162/167) Accurately ripped


==== Log checksum B8E0956099BB22372F598CC2A5852FBB45DE1F77535354915EB93ABB340EC7AF ====

Georg Solti, Chicago Symphony Orchestra - Mendelssohn: Symphonies Nos. 3 & 4 (1986)

Thanks to the original releaser