Subcategories

George Zukerman - Weber, Mozart: Bassoon Concertos (1996)

Posted By: tirexiss
George Zukerman - Weber, Mozart: Bassoon Concertos (1996)

George Zukerman - Weber, Mozart: Bassoon Concertos (1996)
EAC | FLAC (image+.cue, log) | Covers Included | 76:34 | 365 MB
Genre: Classical | Label: Carlton Classics | Catalog: 30371 00662

Canadian bassoonist George Zukerman is an artiste , a man whose agile command of this difficult instrument is apparent at his first entry in the Mozart concerto. His technique dazzles and his wonderfully sweet and lyrical tone is a perfect match for the cantabile style of the slow movements. Jörg Faerber and the Württemberg Chamber Orchestra have been around for years, and even though the period-instrument movement has encroached upon much of their turf, the 30-year-old-plus playing isn’t dated and can stand comparison with the best now available.

George Zukerman - Weber, Mozart: Bassoon Concertos (1996)

Track List:

01. Weber:Concertino for Horn in E minor, Op. 45 [0:14:22.17]
02. Weber: Andante & Rondo Ongarese for viola and Orchestra [0:08:53.15]
03. Weber: Romanza Siciliana for flute and small orchestra [0:03:28.70]
04. Weber: Bassoon Concerto in F major - I: Allegro ma non troppo [0:07:49.00]
05. Weber: Bassoon Concerto in F major - II: Adagio [0:05:54.23]
06. Weber: Bassoon Concerto in F major - III: Rondo - Allegro [0:04:28.57]
07. Weber: Andante & Rondo Ongarese for bassoon and orchestra [0:10:00.05]
08. Mozart: Bassoon Concert in B flat major - I: Allegro [0:08:19.03]
09. Mozart: Bassoon Concert in B flat major - II: Andante ma adagio [0:07:57.27]
10. Mozart: Bassoon Concert in B flat major - III: Rondo - Tempo do menuetto [0:05:24.70]

Performers:
Francis Orval - horn
Peter Thalheimer - flute
George Zukerman - bassoon
Hamburg Symphony Orchestra
Württemberg Chamber Orchestra
Günter Neidlinger - conductor
Jörg Faerber - conductor

Exact Audio Copy V1.0 beta 3 from 29. August 2011

EAC extraction logfile from 23. March 2014, 19:43

Various Artists / Weber, Mozart - Bassoon Concertos - George Zukerman

Used drive : TSSTcorpCDDVDW SH-222BB Adapter: 2 ID: 1

Read mode : Secure
Utilize accurate stream : Yes
Defeat audio cache : Yes
Make use of C2 pointers : No

Read offset correction : 6
Overread into Lead-In and Lead-Out : No
Fill up missing offset samples with silence : Yes
Delete leading and trailing silent blocks : No
Null samples used in CRC calculations : Yes
Used interface : Native Win32 interface for Win NT & 2000

Used output format : User Defined Encoder
Selected bitrate : 896 kBit/s
Quality : High
Add ID3 tag : No
Command line compressor : C:\Program Files\Exact Audio Copy\FLAC\FLAC.EXE
Additional command line options : -8 -V -T "TITLE=%title%" -T "ARTIST=%artist%" -T "ALBUMARTIST=%albumartist%" -T "ALBUM=%albumtitle%" -T "DATE=%year%" -T "TRACKNUMBER=%tracknr%" -T "TRACKTOTAL=%numtracks%" -T "GENRE=%genre%" -T "COMMENT=%comment%" -T "PERFORMER=%albuminterpret%" -T "COMPOSER=%composer%" %source% -o %dest%


TOC of the extracted CD

Track | Start | Length | Start sector | End sector
––––––––––––––––––––––––––––-
1 | 0:00.00 | 14:22.17 | 0 | 64666
2 | 14:22.17 | 8:53.15 | 64667 | 104656
3 | 23:15.32 | 3:28.70 | 104657 | 120326
4 | 26:44.27 | 7:49.00 | 120327 | 155501
5 | 34:33.27 | 5:54.23 | 155502 | 182074
6 | 40:27.50 | 4:28.57 | 182075 | 202231
7 | 44:56.32 | 10:00.05 | 202232 | 247236
8 | 54:56.37 | 8:19.03 | 247237 | 284664
9 | 63:15.40 | 7:57.27 | 284665 | 320466
10 | 71:12.67 | 5:24.70 | 320467 | 344836


Range status and errors

Selected range

Filename E:\3000\[3529] Weber, Mozart – Bassoon Concertos – George Zukerman\Weber, Mozart - Bassoon Concertos - George Zukerman.wav

Peak level 94.9 %
Extraction speed 7.5 X
Range quality 100.0 %
Test CRC 30258FA5
Copy CRC 30258FA5
Copy OK

No errors occurred


AccurateRip summary

Track 1 not present in database
Track 2 not present in database
Track 3 not present in database
Track 4 not present in database
Track 5 not present in database
Track 6 not present in database
Track 7 not present in database
Track 8 not present in database
Track 9 not present in database
Track 10 not present in database

None of the tracks are present in the AccurateRip database

End of status report

==== Log checksum 89A6097CD9B65B3C81F88D4D5D8A9128B093CB1F27B574ECE0946B29757EAB01 ====

Thanks to the Original ripper (unknown)!

Welcome to my blog!

Download: