Tags
Language
Tags

George Petrou, Armonia Atenea, Max Emanuel Cencic - Handel: Arminio (2018) [BDRip]

Posted By: Vilboa
George Petrou, Armonia Atenea, Max Emanuel Cencic - Handel: Arminio (2018) [BDRip]

George Petrou, Armonia Atenea, Max Emanuel Cencic - Handel: Arminio (2018) [BDRip]
BluRay-rip | AVC | MKV 1280x720 / 6215 kbps / 29,970 fps | 167 min | 9,10 Gb
Audio: Italiano / DTS / 6ch / 48.0 KHz / 24 bits
Classical | C Major | Sub: Italian, English, German, French, Korean, Japanese

Max Emanuel Cencic excels with his celebrated and award-winning production of George Frideric Handels masterpiece Arminio at the International Handel Festival Karlsruhe. The remarkable counter-tenor Cencic, who dedicates himself to the revival and performance of the music of the 18th century, demonstrates once more that Baroque singing can be both technically brilliant and at the same time modern and emotionally engaging. His enchanting staging of Arminio is the fulminant revival of the heroic story. When premiered in 1737 at Londons Covent Garden, Arminio strangely received only six performances, despite being praised as a miracle and in every respect excellent and vastly pleasing by contemporaries. Handels opera fell into oblivion until Cencic put it into the limelight, resulting in the rehabilitation of the piece (FAZ). Cencics production of Arminio, which created a furore when performed at the Theater an der Wien, features the ensemble Armonia Atenea under the baton of George Petrou and stars the stage director in the leading role: Cencic is not only as counter-tenor but also as stage director at the peak of his success (Süddeutsche Zeitung).

Cast:
Arminio - Max Emanuel Cencic
Tusnelda - Lauren Snouffer
Sigismondo - Aleksandra Kubas-Kruk
Ramise - Gaia Petrone
Varo - Juan Sancho
Tullio - Owen Willetts
Segeste - Pavel Kudinov
Armonia Atenea
Conductor - George Petrou


General
Unique ID : 245127090153790069227224269632843320078 (0xB869C2A3BA014EECA8EAAE0364548B0E)
Complete name : C:\Arminio.mkv
Format : Matroska
Format version : Version 2
File size : 9.10 GiB
Duration : 2h 47mn
Overall bit rate : 7 759 Kbps
Movie name : Arminio
Encoded date : UTC 2020-05-14 12:50:16
Writing application : DVDFab 9.1.6.8
Writing library : libebml v0.7.8 + libmatroska v0.8.1

Video
ID : 1
Format : AVC
Format/Info : Advanced Video Codec
Format profile : High@L4.1
Format settings, CABAC : Yes
Format settings, ReFrames : 2 frames
Codec ID : V_MPEG4/ISO/AVC
Duration : 2h 47mn
Bit rate : 6 215 Kbps
Width : 1 920 pixels
Height : 1 080 pixels
Display aspect ratio : 16:9
Frame rate mode : Constant
Frame rate : 29.970 fps
Color space : YUV
Chroma subsampling : 4:2:0
Bit depth : 8 bits
Scan type : Progressive
Bits/(Pixel*Frame) : 0.100
Stream size : 7.15 GiB (79%)
Writing library : x264 core 142
Encoding settings : cabac=1 / ref=1 / deblock=1:-1:-1 / analyse=0x3:0 / me=hex / subme=5 / psy=0 / mixed_ref=0 / me_range=16 / chroma_me=1 / trellis=0 / 8x8dct=1 / cqm=0 / deadzone=21,11 / fast_pskip=1 / chroma_qp_offset=0 / threads=8 / lookahead_threads=2 / sliced_threads=0 / nr=0 / decimate=1 / interlaced=0 / bluray_compat=0 / constrained_intra=0 / bframes=2 / b_pyramid=0 / b_adapt=1 / b_bias=0 / direct=1 / weightb=1 / open_gop=0 / weightp=0 / keyint=24 / keyint_min=13 / scenecut=40 / intra_refresh=0 / rc=abr / mbtree=0 / bitrate=6215 / ratetol=1.0 / qcomp=0.60 / qpmin=0 / qpmax=69 / qpstep=4 / ip_ratio=1.40 / pb_ratio=1.30 / aq=1:1.00
Default : Yes
Forced : No
Color primaries : BT.709
Transfer characteristics : BT.709
Matrix coefficients : BT.709
Color range : Limited

Audio
ID : 2
Format : DTS
Format/Info : Digital Theater Systems
Mode : 16
Format settings, Endianness : Big
Codec ID : A_DTS
Duration : 2h 47mn
Bit rate mode : Constant
Bit rate : 1 509 Kbps
Channel(s) : 6 channels
Channel positions : Front: L C R, Side: L R, LFE
Sampling rate : 48.0 KHz
Bit depth : 24 bits
Compression mode : Lossy
Stream size : 1.77 GiB (19%)
Language : Italian
Default : Yes
Forced : No

Text #1
ID : 3
Format : VobSub
Codec ID : S_VOBSUB
Codec ID/Info : The same subtitle format used on DVDs
Language : Italian
Default : Yes
Forced : No

Text #2
ID : 4
Format : VobSub
Codec ID : S_VOBSUB
Codec ID/Info : The same subtitle format used on DVDs
Language : English
Default : No
Forced : No

Text #3
ID : 5
Format : VobSub
Codec ID : S_VOBSUB
Codec ID/Info : The same subtitle format used on DVDs
Language : German
Default : No
Forced : No

Text #4
ID : 6
Format : VobSub
Codec ID : S_VOBSUB
Codec ID/Info : The same subtitle format used on DVDs
Language : French
Default : No
Forced : No

Text #5
ID : 7
Format : VobSub
Codec ID : S_VOBSUB
Codec ID/Info : The same subtitle format used on DVDs
Language : Korean
Default : No
Forced : No

Text #6
ID : 8
Format : VobSub
Codec ID : S_VOBSUB
Codec ID/Info : The same subtitle format used on DVDs
Language : Japanese
Default : No
Forced : No

Menu
00:00:00.000 : en:Chapter 01
00:00:24.457 : en:Chapter 02
00:03:30.643 : en:Chapter 03
00:04:25.331 : en:Chapter 04
00:05:24.791 : en:Chapter 05
00:08:20.566 : en:Chapter 06
00:09:11.951 : en:Chapter 07
00:13:02.481 : en:Chapter 08
00:13:33.612 : en:Chapter 09
00:17:24.042 : en:Chapter 10
00:18:27.439 : en:Chapter 11
00:21:06.798 : en:Chapter 12
00:22:06.024 : en:Chapter 13
00:26:24.282 : en:Chapter 14
00:26:52.911 : en:Chapter 15
00:30:43.441 : en:Chapter 16
00:37:02.920 : en:Chapter 17
00:38:06.250 : en:Chapter 18
00:41:46.270 : en:Chapter 19
00:42:46.730 : en:Chapter 20
00:50:15.645 : en:Chapter 21
00:51:42.833 : en:Chapter 22
00:57:39.389 : en:Chapter 23
00:59:14.851 : en:Chapter 24
01:00:00.229 : en:Chapter 25
01:04:29.765 : en:Chapter 26
01:05:15.578 : en:Chapter 27
01:08:59.401 : en:Chapter 28
01:10:07.236 : en:Chapter 29
01:14:05.574 : en:Chapter 30
01:14:57.626 : en:Chapter 31
01:19:18.320 : en:Chapter 32
01:21:07.295 : en:Chapter 33
01:25:03.331 : en:Chapter 34
01:25:48.977 : en:Chapter 35
01:34:27.595 : en:Chapter 36
01:36:18.773 : en:Chapter 37
01:43:43.550 : en:Chapter 38
01:45:13.073 : en:Chapter 39
01:53:24.130 : en:Chapter 40
01:54:38.838 : en:Chapter 41
01:55:34.227 : en:Chapter 42
01:59:36.302 : en:Chapter 43
02:00:00.893 : en:Chapter 44
02:06:06.025 : en:Chapter 45
02:08:42.948 : en:Chapter 46
02:09:41.940 : en:Chapter 47
02:11:19.771 : en:Chapter 48
02:12:35.213 : en:Chapter 49
02:14:29.795 : en:Chapter 50
02:16:27.445 : en:Chapter 51
02:17:20.865 : en:Chapter 52
02:22:42.921 : en:Chapter 53
02:22:59.571 : en:Chapter 54
02:27:27.538 : en:Chapter 55
02:29:05.169 : en:Chapter 56
02:33:19.823 : en:Chapter 57
02:36:55.773 : en:Chapter 58
02:38:38.575 : en:Chapter 59
02:42:02.112 : en:Chapter 60
02:42:28.205 : en:Chapter 61
02:44:19.449 : en:Chapter 62

George Petrou, Armonia Atenea, Max Emanuel Cencic - Handel: Arminio (2018) [BDRip]