Tags
Language
Tags

Georges Pretre, RCA Italian Opera Orchestra & Chorus, Anna Moffo, Carlo Bergonzi - Donizetti: Lucia di Lammermoor (2015)

Posted By:
Georges Pretre, RCA Italian Opera Orchestra & Chorus, Anna Moffo, Carlo Bergonzi - Donizetti: Lucia di Lammermoor (2015)

Georges Prêtre, RCA Italian Opera Orchestra & Chorus, Anna Moffo, Carlo Bergonzi - Donizetti: Lucia di Lammermoor (2015)
EAC | FLAC | Image (Cue & Log) ~ 641 Mb | Total time: 65:09+71:57 | Scans included
Classical | Label: Sony Classical | # 88875073472 | Recorded: 1965

Anna Moffo, as the young and vulnerable heroine Lucia, produces a wonderfully sincere, yet highly romantic performance in this classic recording of Donizetti's Lucia Di Lammermoor. Featuring Georges Prêtre conducting the RCA Italian Opera Chorus and Orchestra, the recording features a stellar cast of singers, including the incomparable Carlo Bergonzi, Mario Sereni, and Ezio Flagello.

Performer:
Lucia - Anna Moffo
Edgardo - Carlo Bergonzi
Lord Enrico Ashton - Mario Sereni
Raimondo Bidebent - Ezio Flagello
Lord Arturo Bucklaw - Pierre Duval
Alisa - Corinna Vozza
Normanno - Vittorio Pandano
RCA Italian Opera Orchestra & Chorus
Conductor - Georges Prêtre

Track List:
CD1:
01. Atto I. Scena 1. Percorrete le spiagge vicine (Normanno, coro)
02. Tu sei turbato! (Normanno, Enrico, Raimondo)
03. Cruda, funesta smania (Enrico, Normanno, Raimondo, coro)
04. Oh, giorno! (Coro, Enrico, Raimondo)
05. La pietade in suo favore (Enrico, Raimondo, coro)
06. Scena 2. Anco non giunse! (Lucia, Alisa)
07. Regnava nel silenzio (Lucia, Alisa)
08. Quando rapito in estasi (Lucia, Alisa)
09. Egli s'avanza… La vicina soglia (Alisa, Edgardo, Lucia)
10. Sulla tomba che rinserra (Edgardo, Lucia)
11. Qui di sposa eterna fede (Edgardo, Lucia)
12. Atto II. Scena 1. Lucia fra poco a te verrà (Normanno, Enrico)
13. Appressati, Lucia - Il pallor funesto (Enrico, Lucia)
14. Soffriva nel pianto (Lucia, Enrico)
15. Che fia? - Suonar di giubilo (Lucia, Enrico)
16. Se tradirmi tu potrai (Enrico, Lucia)
17. Ebben?-Di tau speranza (Lucia, Raimondo)
18. Ah, cedi, cedi, o più sciagure (Raimondo, Lucia)
19. Al ben dé tuoi, qual vittima (Raimondo, Lucia)
CD2:
01. Scena 2. Per te d'immenso giubilo (Coro, Arturo)
02. Dov'è Lucia? (Arturo, Enrico, Lucia, Raimondo, Edgardo, coro)
03. Chi mi frena in tal momento? (Edgardo, Enrico, Lucia, Raimondo, Arturo, Alisa, coro)
04. T'allontana, sciagurato (Enrico, Arturo, Edgardo, Raimondo, Lusia, Alisa, coro)
05. Atto III. Scena 1. Orrida è questa notte (Edgardo, Enrico)
06. Qui del padre ancor respira (Edgardo, Enrico)
07. Scena 2. D' immenso giubilos s' innalzi (Coro)
08. Deh! cessate quel contento! (Raimondo, coro)
09. Oh! qual funesto awenimento! (Coro, Raimondo)
10. Il dolce suono (Raimondo, Lucia, coro)
11. Ohimè! sorge io tremendo fantasma (Lucia)
12. Ardon gl'incensi (Lucia, Raimondo, Normanno, coro)
13. S'avanza Enrico (Raimondo, Enrico, Lucia, coro)
14. Spargi d'amaro pianto (Lucia, Enrico, Raimondo, coro)
15. Si tragga altrove (Enrico, Raimondo, Normanno)
16. Scena 3. Tombe degli avi miei (Edgardo)
17. Fra poco a me ricovero (Edgardo)
18. Oh, meschina! Oh, fato orrendo! (Coro, Edgardo, Raimondo)
19. Tu che Dio spiegasti l'ali (Edgardo, Raimondo, coro)


Exact Audio Copy V1.3 from 2. September 2016

EAC extraction logfile from 30. September 2019, 13:03

Anna Moffo, Carlo Bergonzi, Georges Prêtre, RCA Italiana Opera Orchestra / Donizetti - Lucia di Lammermoor CD1

Used drive : HL-DT-STDVDRAM GH24NS95 Adapter: 1 ID: 0

Read mode : Secure
Utilize accurate stream : Yes
Defeat audio cache : Yes
Make use of C2 pointers : No

Read offset correction : 6
Overread into Lead-In and Lead-Out : No
Fill up missing offset samples with silence : Yes
Delete leading and trailing silent blocks : No
Null samples used in CRC calculations : Yes
Used interface : Native Win32 interface for Win NT & 2000

Used output format : User Defined Encoder
Selected bitrate : 128 kBit/s
Quality : High
Add ID3 tag : No
Command line compressor : C:\Program Files\Exact Audio Copy\FLAC\FLAC.EXE
Additional command line options : -V -8 -T "Date=%year%" -T "Genre=%genre%" %source%


TOC of the extracted CD

Track | Start | Length | Start sector | End sector
––––––––––––––––––––––––––––-
1 | 0:00.00 | 4:53.41 | 0 | 22015
2 | 4:53.41 | 2:34.52 | 22016 | 33617
3 | 7:28.18 | 2:25.48 | 33618 | 44540
4 | 9:53.66 | 1:54.09 | 44541 | 53099
5 | 11:48.00 | 3:32.30 | 53100 | 69029
6 | 15:20.30 | 4:01.66 | 69030 | 87170
7 | 19:22.21 | 4:23.49 | 87171 | 106944
8 | 23:45.70 | 4:20.37 | 106945 | 126481
9 | 28:06.32 | 2:40.31 | 126482 | 138512
10 | 30:46.63 | 3:03.37 | 138513 | 152274
11 | 33:50.25 | 7:12.68 | 152275 | 184742
12 | 41:03.18 | 2:51.20 | 184743 | 197587
13 | 43:54.38 | 5:00.15 | 197588 | 220102
14 | 48:54.53 | 3:14.39 | 220103 | 234691
15 | 52:09.17 | 1:17.02 | 234692 | 240468
16 | 53:26.19 | 3:19.04 | 240469 | 255397
17 | 56:45.23 | 2:02.42 | 255398 | 264589
18 | 58:47.65 | 2:21.41 | 264590 | 275205
19 | 61:09.31 | 3:59.57 | 275206 | 293187


Range status and errors

Selected range

Filename C:\ArlegZ\Donizetti - Lucia di Lammermoor CD1.wav

Peak level 98.5 %
Extraction speed 8.0 X
Range quality 100.0 %
Test CRC 230E17A9
Copy CRC 230E17A9
Copy OK

No errors occurred

End of status report

==== Log checksum F5D763FBE8976C9C4552F03A7C47B84B703C0347B847DA2950E65D25D786538E ====


Exact Audio Copy V1.3 from 2. September 2016

EAC extraction logfile from 30. September 2019, 13:38

Anna Moffo, Carlo Bergonzi, Georges Prêtre, RCA Italiana Opera Orchestra / Donizetti - Lucia di Lammermoor CD2

Used drive : HL-DT-STDVDRAM GH24NS95 Adapter: 1 ID: 0

Read mode : Secure
Utilize accurate stream : Yes
Defeat audio cache : Yes
Make use of C2 pointers : No

Read offset correction : 6
Overread into Lead-In and Lead-Out : No
Fill up missing offset samples with silence : Yes
Delete leading and trailing silent blocks : No
Null samples used in CRC calculations : Yes
Used interface : Native Win32 interface for Win NT & 2000

Used output format : User Defined Encoder
Selected bitrate : 128 kBit/s
Quality : High
Add ID3 tag : No
Command line compressor : C:\Program Files\Exact Audio Copy\FLAC\FLAC.EXE
Additional command line options : -V -8 -T "Date=%year%" -T "Genre=%genre%" %source%


TOC of the extracted CD

Track | Start | Length | Start sector | End sector
––––––––––––––––––––––––––––-
1 | 0:00.00 | 3:33.03 | 0 | 15977
2 | 3:33.03 | 4:06.74 | 15978 | 34501
3 | 7:40.02 | 3:29.69 | 34502 | 50245
4 | 11:09.71 | 5:56.57 | 50246 | 77002
5 | 17:06.53 | 2:50.05 | 77003 | 89757
6 | 19:56.58 | 8:04.10 | 89758 | 126067
7 | 28:00.68 | 1:42.27 | 126068 | 133744
8 | 29:43.20 | 3:05.45 | 133745 | 147664
9 | 32:48.65 | 2:37.06 | 147665 | 159445
10 | 35:25.71 | 3:12.27 | 159446 | 173872
11 | 38:38.23 | 3:06.64 | 173873 | 187886
12 | 41:45.12 | 5:15.47 | 187887 | 211558
13 | 47:00.59 | 3:01.52 | 211559 | 225185
14 | 50:02.36 | 3:56.25 | 225186 | 242910
15 | 53:58.61 | 1:29.08 | 242911 | 249593
16 | 55:27.69 | 3:58.02 | 249594 | 267445
17 | 59:25.71 | 3:21.29 | 267446 | 282549
18 | 62:47.25 | 4:50.00 | 282550 | 304299
19 | 67:37.25 | 4:20.35 | 304300 | 323834


Range status and errors

Selected range

Filename C:\ArlegZ\Donizetti - Lucia di Lammermoor CD2.wav

Peak level 98.8 %
Extraction speed 8.2 X
Range quality 100.0 %
Test CRC D54D231C
Copy CRC D54D231C
Copy OK

No errors occurred

End of status report

==== Log checksum D0B96049346C6B84A280E4F3F2FEEB9C7A186C77CC72536E5157B55C3635C321 ====

Georges Pretre, RCA Italian Opera Orchestra & Chorus, Anna Moffo, Carlo Bergonzi - Donizetti: Lucia di Lammermoor (2015)