Subcategories

Gerd Albrecht - Dvorak: Svata Ludmila (1999)

Posted By: tirexiss
Gerd Albrecht - Dvorak: Svata Ludmila (1999)

Gerd Albrecht - Dvorak: Svata Ludmila (1999)
EAC | FLAC (image+.cue, log) | Covers Included | 02:23:56 | 633 MB
Genre: Classical, Choral | Label: Orfeo | Catalog: C 315 992 H

Gerd Albrecht was a leading German conductor. He was best known for his interpretations of late Romantic and 20th century German repertory.
His father was Hans Albrecht (1902-1961), a well-known musicologist. He was a choral scholar at the age of 15 and began conducting when he was 16. He studied at the Hamburg Musikhochschule (Hamburg Music Academy) from 1955 to 1958. There his conducting teacher was Hans Brückner-Rüggeberg. He also studied musicology, philosophy, and the science of art in Hamburg and Kiel Universities.
In 1957, he won the prize at the International Young Conductors Competition at Besançon, and in 1958 the Hilversum Conductors Competition. This led to his appointment in 1958 as a choir rehearsal director at the Stuttgart State Opera in 1958, a typical entry-level position for talented young conductors in Germany, where there are numerous state-supported opera houses. In 1961, Albrecht became Principal Conductor of the Mainz City Opera until 1963.
This was the beginning of steady advancement through the ranks of opera chief conductors in Germany. He was successively Music Director of the Buhnen Lübeck (1962-1966) – the youngest German conductor of that house –and the Kassel Staatsoper (Music Director, 1966-1972) and in 1972 was appointed Principal Conductor of the Berlin Deutsche Opera, West Berlin's opera house and one of the leading operatic venues in Germany, succeeding Lorin Maazel.
While at Kassel, he began presenting TV broadcasts intended to acquaint young and old with classical and operatic music. He continued this practice in his later posts. In 1974, Albrecht received the German Television Grimm Prize for his achievements in children's broadcasting, and for devising and establishing "Instrument Museums" where children can learn about musical instruments.
In 1975, in addition to his position in Berlin, he became the Principal Conductor of the Tonhalle-Orchestra of Zurich, a leading Swiss ensemble, succeeding Rudolf Kempe. In both Zurich and Berlin, he became known as an exacting conductor who would call for additional rehearsals when needed, as in the case of a Mahler's Third Symphony performance in Zurich that required twelve rehearsals.
He left the Berlin Deutsche Opera in 1977 and the Tonhalle in 1980. During this period, he guest conducted widely. He became well known for reviving the music of Romantic German composers Ludwig Spohr, Hans Zemlinsky, and Max Reger, and for performances of music of Schumann and Dvorák and other Romantic masters. He also became associated with the leading German and Austrian composers of the first part of the twentieth century (Schoenberg, Berg, Webern, and Hindemith), the composers Viktor Ullman, Gideon Klein, and Pavel Haas (all of whom where murdered in Nazi death camps), and more recent composers such as Fortner, Ligeti, Reimann, Penderecki, and Schnittke, many of whose works he premiered either at Berlin or in his later position as Music Director of the Hamburg State Opera and Philharmonic State Opera of Hamburg (1888-1997).
In 1993, the Czech Philharmonic, Prague's leading orchestra, having reorganized itself as a self-governing orchestra, voted by an overwhelming majority to engage Albrecht as their Principal Conductor. He took up that post in September 1993. However, his position as the first German conductor of that orchestra was widely attacked in the newspapers and in political circles, leading Albrecht to resign, leaving in January 1996.
In 1998, he took up the position of Principal Conductor of the Yomiuri Nippon Symphony Orchestra, and at the start of the 2000 season, Chief conductor of the Danish National Radio Symphony Orchestra. He held these posts until 2007 and 2004 respectively.
Albrecht won numerous prizes and recognition for his conducting, television productions, and writings, which included books on music and collections of fairy tales for children. – Joseph Stevenson

Gerd Albrecht - Dvorak: Svata Ludmila (1999)

Track List:

CD 1:
1. Part 1: 'The dusk departs to gloomy caves and forests'
2. 'Merry Spring time…'
3. 'Blossoms with which Spring allures us…'
4. 'Holy dawn and holy night alike are dusky…'
5. 'Triglav, thou with threefold countenance'
6. 'My heart is beating wildly for today.'
7. 'Hear when we sing our psalm…'
8. 'When young it was the altar'
9. 'The gods are close are hand…'
10. 'Festoon with flowers gay'
11. 'What causes all that noise?'
12. 'Now kiss the dust, all!'
13. 'What man is this whom lightning will not fell?'
14. 'I beg thee, on thy dusty feet…'
15. 'Upon this earth…'
16. 'What will befall us, in the time approaching?'
17. 'Now everything is crumbling, all is chaos…'

18. Part 2: 'Oh, in the fearful forest shadows…'


Exact Audio Copy V1.0 beta 3 from 29. August 2011

EAC extraction logfile from 31. December 2012, 20:33

Gerd Albrecht / Dvorak - Svatá Ludmila - Albrecht (Disc 1)

Used drive : TSSTcorpCDDVDW SH-222BB Adapter: 2 ID: 1

Read mode : Secure
Utilize accurate stream : Yes
Defeat audio cache : Yes
Make use of C2 pointers : No

Read offset correction : 6
Overread into Lead-In and Lead-Out : No
Fill up missing offset samples with silence : Yes
Delete leading and trailing silent blocks : No
Null samples used in CRC calculations : Yes
Used interface : Native Win32 interface for Win NT & 2000

Used output format : User Defined Encoder
Selected bitrate : 1024 kBit/s
Quality : High
Add ID3 tag : No
Command line compressor : C:\Program Files\Exact Audio Copy\Flac\flac.exe
Additional command line options : -8 -V -T "TITLE=%title%" -T "ARTIST=%artist%" -T "ALBUMARTIST=%albumartist%" -T "ALBUM=%albumtitle%" -T "DATE=%year%" -T "TRACKNUMBER=%tracknr%" -T "TRACKTOTAL=%numtracks%" -T "GENRE=%genre%" -T "COMMENT=%comment%" -T "PERFORMER=%albuminterpret%" -T "COMPOSER=%composer%" %source% -o %dest%


TOC of the extracted CD

Track | Start | Length | Start sector | End sector
––––––––––––––––––––––––––––-
1 | 0:00.00 | 7:51.32 | 0 | 35356
2 | 7:51.32 | 0:59.05 | 35357 | 39786
3 | 8:50.37 | 4:03.45 | 39787 | 58056
4 | 12:54.07 | 4:24.33 | 58057 | 77889
5 | 17:18.40 | 3:40.20 | 77890 | 94409
6 | 20:58.60 | 2:23.47 | 94410 | 105181
7 | 23:22.32 | 4:29.43 | 105182 | 125399
8 | 27:52.00 | 4:37.02 | 125400 | 146176
9 | 32:29.02 | 2:33.65 | 146177 | 157716
10 | 35:02.67 | 1:23.65 | 157717 | 164006
11 | 36:26.57 | 3:12.63 | 164007 | 178469
12 | 39:39.45 | 4:00.02 | 178470 | 196471
13 | 43:39.47 | 3:55.30 | 196472 | 214126
14 | 47:35.02 | 7:06.48 | 214127 | 246124
15 | 54:41.50 | 1:09.59 | 246125 | 251358
16 | 55:51.34 | 2:22.48 | 251359 | 262056
17 | 58:14.07 | 4:26.18 | 262057 | 282024
18 | 62:40.25 | 8:06.30 | 282025 | 318504


Range status and errors

Selected range

Filename G:\Ripped general\[9286] Dvorak – Svatá Ludmila – Albrecht\cd1\Dvorak - Svatá Ludmila - Albrecht (Disc 1).wav

Peak level 99.9 %
Extraction speed 7.3 X
Range quality 99.9 %
Test CRC 6D8C7D4F
Copy CRC 6D8C7D4F
Copy OK

No errors occurred


AccurateRip summary

Track 1 accurately ripped (confidence 2) [B895C324] (AR v1)
Track 2 accurately ripped (confidence 2) [B233005D] (AR v1)
Track 3 accurately ripped (confidence 2) [0CF54F1B] (AR v1)
Track 4 accurately ripped (confidence 2) [006FA93A] (AR v1)
Track 5 accurately ripped (confidence 2) [77847C38] (AR v1)
Track 6 accurately ripped (confidence 2) [E7804C30] (AR v1)
Track 7 accurately ripped (confidence 2) [79B0D687] (AR v1)
Track 8 accurately ripped (confidence 2) [61D6D2DE] (AR v1)
Track 9 accurately ripped (confidence 2) [2571DCD6] (AR v1)
Track 10 accurately ripped (confidence 2) [3625E446] (AR v1)
Track 11 accurately ripped (confidence 2) [CEF2D3B6] (AR v1)
Track 12 accurately ripped (confidence 2) [9E5D38ED] (AR v1)
Track 13 accurately ripped (confidence 2) [97B4C37C] (AR v1)
Track 14 accurately ripped (confidence 2) [8160FFB6] (AR v1)
Track 15 accurately ripped (confidence 2) [8CEC38FD] (AR v1)
Track 16 accurately ripped (confidence 2) [7E248C07] (AR v1)
Track 17 accurately ripped (confidence 2) [58FE7A9B] (AR v1)
Track 18 not present in database

17 track(s) accurately ripped
1 track(s) not present in the AccurateRip database

Some tracks could not be verified as accurate

End of status report

[CUETools log; Date: 26.10.2017 10:35:57; Version: 2.1.5]
[CTDB TOCID: tdSW_moXGKqM4QyifYKrUMw1VAw-] found.
Track | CTDB Status
1 | (2/2) Accurately ripped
2 | (2/2) Accurately ripped
3 | (2/2) Accurately ripped
4 | (2/2) Accurately ripped
5 | (2/2) Accurately ripped
6 | (2/2) Accurately ripped
7 | (2/2) Accurately ripped
8 | (2/2) Accurately ripped
9 | (2/2) Accurately ripped
10 | (2/2) Accurately ripped
11 | (2/2) Accurately ripped
12 | (2/2) Accurately ripped
13 | (2/2) Accurately ripped
14 | (2/2) Accurately ripped
15 | (2/2) Accurately ripped
16 | (2/2) Accurately ripped
17 | (2/2) Accurately ripped
18 | (2/2) Accurately ripped
[AccurateRip ID: 002d0fa4-02501ceb-f6109612] found.
Track [ CRC | V2 ] Status
01 [b895c324|9d4a9b21] (2+2/4) Accurately ripped
02 [b233005d|aa5e93a2] (2+2/4) Accurately ripped
03 [0cf54f1b|7ad051a2] (2+2/4) Accurately ripped
04 [006fa93a|34606512] (2+2/4) Accurately ripped
05 [77847c38|46fcb64f] (2+2/4) Accurately ripped
06 [e7804c30|69590b2d] (2+2/4) Accurately ripped
07 [79b0d687|3e0493d5] (2+2/4) Accurately ripped
08 [61d6d2de|cb7b7051] (2+2/4) Accurately ripped
09 [2571dcd6|f444725e] (2+2/4) Accurately ripped
10 [3625e446|eafc5f70] (2+2/4) Accurately ripped
11 [cef2d3b6|48eaf966] (2+2/4) Accurately ripped
12 [9e5d38ed|343c4988] (2+2/4) Accurately ripped
13 [97b4c37c|1dd03e64] (2+2/4) Accurately ripped
14 [8160ffb6|c91796d1] (2+2/4) Accurately ripped
15 [8cec38fd|6d6f6836] (2+2/4) Accurately ripped
16 [7e248c07|4aa8f51f] (2+2/4) Accurately ripped
17 [58fe7a9b|f46c477a] (2+2/4) Accurately ripped
18 [d852ff6c|e8df53e9] (0+2/2) Accurately ripped

Track Peak [ CRC32 ] [W/O NULL] [ LOG ]
– 99,9 [6D8C7D4F] [63CE8C75] CRC32
01 60,3 [AB0D6346] [320906BB]
02 20,8 [E2C4ABF2] [1B008A6D]
03 81,4 [532D5B4C] [46CA8546]
04 66,7 [CC4F095E] [39C50FBB]
05 76,5 [DFDBD854] [2FC4E373]
06 59,8 [5B240F12] [B0918EF4]
07 75,0 [53360979] [F8AB626F]
08 62,7 [76B76AA9] [32276BCE]
09 90,8 [7320EAEF] [8CE0D759]
10 66,5 [55BD63DD] [7B7D3514]
11 99,1 [D8D06A12] [8ABC6DBF]
12 46,1 [88C1A5A8] [133B3FB8]
13 99,9 [5722B0EB] [DA03B42C]
14 43,7 [CBF0E4AB] [A41EA354]
15 41,5 [3493C832] [C2F80030]
16 47,1 [46D7DCFE] [E64C9C7D]
17 91,3 [E6CDF601] [E83970E4]
18 76,1 [7C6D2A13] [FA0D8E50]

CD 2:
1. Part 2: 'Pray tell me now, what do you seek?'
2. 'No error made I, I welcome you, daughter!'
3. 'Thanks, Father, I felt sure I was right.'
4. 'First you should learn…'
5. 'Oh tell me, for humility I long now…'
6. 'All hail, great Cross, that bears our weight of s
7. 'Gaily we pass through field and through forest'
8. 'Oh, what a sight there in the shadows…'
9. 'I lead the lost souls out of darkness'
10. 'I think the truth I now infer'
11. 'Oh, show to me the way that I must win her'
12. 'Oh, look there, see our Prince upon his knees'
13 'How is it possible to raise my eyelids'
14. 'Oh, heavens! Oh heavens!'
15. 'I rudely awake from a perfect dream'
16. 'For this new shining dawn I am now searching'

17. Part 3: 'Mighty Lord, have mercy on us!'
18. 'Come forward all to whom I've taught the new cree
19. 'Anoint our foreheads with the holy water'
20. 'So both of you will kneel before Methodius…'
21. 'Holy Ghost in royal purple'
22. 'O let the heavens echo with our anthem'
23. 'Virgin mother of our Saviour'
24. 'Now let the heaven echo with our anthem'
25. 'Mighty Lord, have mercy on us!'

Exact Audio Copy V1.0 beta 3 from 29. August 2011

EAC extraction logfile from 31. December 2012, 20:47

Gerd Albrecht / Dvorak - Svatá Ludmila - Albrecht (Disc 2)

Used drive : TSSTcorpCDDVDW SH-222BB Adapter: 2 ID: 1

Read mode : Secure
Utilize accurate stream : Yes
Defeat audio cache : Yes
Make use of C2 pointers : No

Read offset correction : 6
Overread into Lead-In and Lead-Out : No
Fill up missing offset samples with silence : Yes
Delete leading and trailing silent blocks : No
Null samples used in CRC calculations : Yes
Used interface : Native Win32 interface for Win NT & 2000

Used output format : User Defined Encoder
Selected bitrate : 1024 kBit/s
Quality : High
Add ID3 tag : No
Command line compressor : C:\Program Files\Exact Audio Copy\Flac\flac.exe
Additional command line options : -8 -V -T "TITLE=%title%" -T "ARTIST=%artist%" -T "ALBUMARTIST=%albumartist%" -T "ALBUM=%albumtitle%" -T "DATE=%year%" -T "TRACKNUMBER=%tracknr%" -T "TRACKTOTAL=%numtracks%" -T "GENRE=%genre%" -T "COMMENT=%comment%" -T "PERFORMER=%albuminterpret%" -T "COMPOSER=%composer%" %source% -o %dest%


TOC of the extracted CD

Track | Start | Length | Start sector | End sector
––––––––––––––––––––––––––––-
1 | 0:00.00 | 3:51.50 | 0 | 17374
2 | 3:51.50 | 2:40.52 | 17375 | 29426
3 | 6:32.27 | 0:27.63 | 29427 | 31514
4 | 7:00.15 | 1:44.67 | 31515 | 39381
5 | 8:45.07 | 0:40.57 | 39382 | 42438
6 | 9:25.64 | 3:48.61 | 42439 | 59599
7 | 13:14.50 | 2:24.20 | 59600 | 70419
8 | 15:38.70 | 3:45.32 | 70420 | 87326
9 | 19:24.27 | 0:44.40 | 87327 | 90666
10 | 20:08.67 | 2:06.10 | 90667 | 100126
11 | 22:15.02 | 2:00.03 | 100127 | 109129
12 | 24:15.05 | 4:29.72 | 109130 | 129376
13 | 28:45.02 | 0:50.25 | 129377 | 133151
14 | 29:35.27 | 3:07.70 | 133152 | 147246
15 | 32:43.22 | 0:19.18 | 147247 | 148689
16 | 33:02.40 | 2:11.15 | 148690 | 158529
17 | 35:13.55 | 5:44.50 | 158530 | 184379
18 | 40:58.30 | 4:31.10 | 184380 | 204714
19 | 45:29.40 | 1:23.62 | 204715 | 211001
20 | 46:53.27 | 7:26.25 | 211002 | 244476
21 | 54:19.52 | 2:06.25 | 244477 | 253951
22 | 56:26.02 | 1:45.60 | 253952 | 261886
23 | 58:11.62 | 2:48.18 | 261887 | 274504
24 | 61:00.05 | 0:51.50 | 274505 | 278379
25 | 61:51.55 | 2:21.40 | 278380 | 288994
26 | 64:13.20 | 2:27.15 | 288995 | 300034
27 | 66:40.35 | 6:29.12 | 300035 | 329221


Range status and errors

Selected range

Filename G:\Ripped general\[9286] Dvorak – Svatá Ludmila – Albrecht\cd2\Dvorak - Svatá Ludmila - Albrecht (Disc 2).wav

Peak level 100.0 %
Extraction speed 7.6 X
Range quality 100.0 %
Copy CRC CA4FD883
Copy OK

No errors occurred


AccurateRip summary

Track 1 cannot be verified as accurate (confidence 2) [160EEA32], AccurateRip returned [27AC5FCB] (AR v2)
Track 2 cannot be verified as accurate (confidence 2) [4DABED96], AccurateRip returned [D97D185D] (AR v2)
Track 3 cannot be verified as accurate (confidence 2) [808974B9], AccurateRip returned [FDEE0231] (AR v2)
Track 4 cannot be verified as accurate (confidence 2) [92D6E9EA], AccurateRip returned [9207C546] (AR v2)
Track 5 cannot be verified as accurate (confidence 2) [4DDB655E], AccurateRip returned [863C8B0E] (AR v2)
Track 6 cannot be verified as accurate (confidence 2) [2A176DBD], AccurateRip returned [A36D107A] (AR v2)
Track 7 cannot be verified as accurate (confidence 2) [2CFF005F], AccurateRip returned [391E80CF] (AR v2)
Track 8 cannot be verified as accurate (confidence 2) [30F32F43], AccurateRip returned [C2A28F3B] (AR v2)
Track 9 cannot be verified as accurate (confidence 2) [6F4D3B44], AccurateRip returned [786DDC5C] (AR v2)
Track 10 cannot be verified as accurate (confidence 2) [A46BE8D7], AccurateRip returned [34BBF38E] (AR v2)
Track 11 cannot be verified as accurate (confidence 2) [8F74DB8D], AccurateRip returned [C4C464BA] (AR v2)
Track 12 cannot be verified as accurate (confidence 2) [F209371F], AccurateRip returned [583964EF] (AR v2)
Track 13 cannot be verified as accurate (confidence 2) [B7B1D491], AccurateRip returned [D9AB33AD] (AR v2)
Track 14 cannot be verified as accurate (confidence 2) [24737CEF], AccurateRip returned [6A50C1BD] (AR v2)
Track 15 cannot be verified as accurate (confidence 2) [2B609B78], AccurateRip returned [F2059894] (AR v2)
Track 16 cannot be verified as accurate (confidence 2) [5F388BF0], AccurateRip returned [C1C4712E] (AR v2)
Track 17 cannot be verified as accurate (confidence 2) [7289C8B3], AccurateRip returned [EE2A4C50] (AR v2)
Track 18 cannot be verified as accurate (confidence 2) [43D1970E], AccurateRip returned [48A0DABD] (AR v2)
Track 19 cannot be verified as accurate (confidence 2) [AAA8D4E3], AccurateRip returned [584058E8] (AR v2)
Track 20 cannot be verified as accurate (confidence 2) [9E44754F], AccurateRip returned [FF967497] (AR v2)
Track 21 cannot be verified as accurate (confidence 2) [1A738735], AccurateRip returned [724994B2] (AR v2)
Track 22 cannot be verified as accurate (confidence 2) [76FB875F], AccurateRip returned [59854D58] (AR v2)
Track 23 cannot be verified as accurate (confidence 2) [555E0764], AccurateRip returned [D556553C] (AR v2)
Track 24 cannot be verified as accurate (confidence 2) [D4F79974], AccurateRip returned [CEA7E4D5] (AR v2)
Track 25 cannot be verified as accurate (confidence 2) [B5B339D4], AccurateRip returned [2052FFAB] (AR v2)
Track 26 cannot be verified as accurate (confidence 2) [CD225A19], AccurateRip returned [B5BEB64F] (AR v2)
Track 27 cannot be verified as accurate (confidence 2) [4AC8417E], AccurateRip returned [54B9779C] (AR v2)

No tracks could be verified as accurate
You may have a different pressing from the one(s) in the database

End of status report

[CUETools log; Date: 26.10.2017 10:36:34; Version: 2.1.5]
[CTDB TOCID: VbMFSPuKahAWxuKc0.kBAGkJv0o-] found.
Track | CTDB Status
1 | (2/2) Accurately ripped
2 | (2/2) Accurately ripped
3 | (2/2) Accurately ripped
4 | (2/2) Accurately ripped
5 | (2/2) Accurately ripped
6 | (2/2) Accurately ripped
7 | (2/2) Accurately ripped
8 | (2/2) Accurately ripped
9 | (2/2) Accurately ripped
10 | (2/2) Accurately ripped
11 | (2/2) Accurately ripped
12 | (2/2) Accurately ripped
13 | (2/2) Accurately ripped
14 | (2/2) Accurately ripped
15 | (2/2) Accurately ripped
16 | (2/2) Accurately ripped
17 | (2/2) Accurately ripped
18 | (2/2) Accurately ripped
19 | (2/2) Accurately ripped
20 | (2/2) Accurately ripped
21 | (2/2) Accurately ripped
22 | (2/2) Accurately ripped
23 | (2/2) Accurately ripped
24 | (2/2) Accurately ripped
25 | (2/2) Accurately ripped
26 | (2/2) Accurately ripped
27 | (2/2) Accurately ripped
[AccurateRip ID: 00407ba3-04f50734-8a11251b] found.
Track [ CRC | V2 ] Status
01 [84b1ec9f|160eea32] (0+0/2) No match
02 [9a2259b3|4dabed96] (0+0/2) No match
03 [b8be3a95|808974b9] (0+0/2) No match
04 [31da52ae|92d6e9ea] (0+0/2) No match
05 [944a8026|4ddb655e] (0+0/2) No match
06 [1a913637|2a176dbd] (0+0/2) No match
07 [dd381aa4|2cff005f] (0+0/2) No match
08 [90e37069|30f32f43] (0+0/2) No match
09 [b0614969|6f4d3b44] (0+0/2) No match
10 [fd7bdb8b|a46be8d7] (0+0/2) No match
11 [05e2d761|8f74db8d] (0+0/2) No match
12 [827483b4|f209371f] (0+0/2) No match
13 [79c9e1c9|b7b1d491] (0+0/2) No match
14 [59971b36|24737cef] (0+0/2) No match
15 [3b0b4484|2b609b78] (0+0/2) No match
16 [83b45bed|5f388bf0] (0+0/2) No match
17 [4c63ab60|7289c8b3] (0+0/2) No match
18 [37257acd|43d1970e] (0+0/2) No match
19 [c34fba47|aaa8d4e3] (0+0/2) No match
20 [e14c0f97|9e44754f] (0+0/2) No match
21 [7378bae4|1a738735] (0+0/2) No match
22 [95d30433|76fb875f] (0+0/2) No match
23 [8f717588|555e0764] (0+0/2) No match
24 [b96de0c5|d4f79974] (0+0/2) No match
25 [a7babdea|b5b339d4] (0+0/2) No match
26 [16e1b9d3|cd225a19] (0+0/2) No match
27 [dd606c7d|4ac8417e] (0+0/2) No match
Offsetted by 18:
01 [27ac5fcb] (2/2) Accurately ripped
02 [d97d185d] (2/2) Accurately ripped
03 [fdee0231] (2/2) Accurately ripped
04 [9207c546] (2/2) Accurately ripped
05 [863c8b0e] (2/2) Accurately ripped
06 [a36d107a] (2/2) Accurately ripped
07 [391e80cf] (2/2) Accurately ripped
08 [c2a28f3b] (2/2) Accurately ripped
09 [786ddc5c] (2/2) Accurately ripped
10 [34bbf38e] (2/2) Accurately ripped
11 [c4c464ba] (2/2) Accurately ripped
12 [583964ef] (2/2) Accurately ripped
13 [d9ab33ad] (2/2) Accurately ripped
14 [6a50c1bd] (2/2) Accurately ripped
15 [f2059894] (2/2) Accurately ripped
16 [c1c4712e] (2/2) Accurately ripped
17 [ee2a4c50] (2/2) Accurately ripped
18 [48a0dabd] (2/2) Accurately ripped
19 [584058e8] (2/2) Accurately ripped
20 [ff967497] (2/2) Accurately ripped
21 [724994b2] (2/2) Accurately ripped
22 [59854d58] (2/2) Accurately ripped
23 [d556553c] (2/2) Accurately ripped
24 [cea7e4d5] (2/2) Accurately ripped
25 [2052ffab] (2/2) Accurately ripped
26 [b5beb64f] (2/2) Accurately ripped
27 [54b9779c] (2/2) Accurately ripped

Track Peak [ CRC32 ] [W/O NULL] [ LOG ]
– 99,9 [CA4FD883] [45667FBA] CRC32
01 78,3 [FBDDF928] [3E26D316]
02 65,9 [32D8E7B1] [84EFCCDB]
03 56,1 [B277559D] [50744B50]
04 60,9 [904AB38B] [B38D2C6F]
05 35,8 [B66F1217] [FE99ADA7]
06 33,1 [5FDDDF61] [6966D1EA]
07 27,7 [82A443E8] [299CBF32]
08 31,2 [489AD92C] [A1335E33]
09 40,1 [AAA44525] [E6454591]
10 68,7 [33C59D9F] [44803941]
11 46,2 [6AA53A38] [044CD14E]
12 68,6 [298C188C] [B02F53B9]
13 77,3 [A0B1CA55] [A8700C56]
14 51,5 [C8E5F83E] [B1728D13]
15 66,6 [9B6BB7B9] [47512EE8]
16 58,7 [6E2DC646] [57A038AC]
17 86,2 [07C7F659] [091D6C58]
18 99,9 [50AC9F6E] [3445BFE2]
19 38,3 [8B28C8BE] [DF9F97D9]
20 76,4 [FF9810AF] [92512B9F]
21 46,3 [04A34420] [E3D58D3B]
22 73,5 [B0A14233] [8D31BA96]
23 61,0 [A172A28B] [6B946246]
24 75,6 [5FA92A65] [7DDE2010]
25 54,1 [5DFFC2D4] [CC477DCB]
26 90,4 [F75EF4C7] [CA3F3624]
27 94,7 [3AA91E85] [06A86745]

Performers:
Lívia Ághová - soprano
Michelle Breed - contralto
Piotr Beczala - tenor
Luděk Vele - bass

Prague Chamber Choir
WDR Rundfunkchor Köln
WDR Sinfonieorchester Köln
Gerd Albrecht - conductor
Thanks to the Original ripper (unknown)!

Download: