Tags
Language
Tags

Gerry Gibbs And The Thrasher Band - Faces Unknown (2006)

Posted By: popsakov
Gerry Gibbs And The Thrasher Band - Faces Unknown (2006)

Gerry Gibbs And The Thrasher Band - Faces Unknown (2006)
EAC Rip | FLAC (Tracks) + Cue + m3u + Log ~ 585 Mb | MP3 CBR320 ~ 191 Mb
Full Scans ~ 69 Mb | 01:19:10 | RAR 5% Recovery
Contemporary Jazz, Post Bop, Fusion | SMSJazz #783707377803

Son of famed vibist Terry Gibbs, drummer Gerry teams up to record this debut of the second incarnation of The Gerry Gibbs Thrasher Band with 5 multi-talented instrumentalist from all over the state of Texas to create the Gerry Gibbs Thrasher Band 2 ,which played and toured together for 5 years.The 6 musicians of the”Thrasher Band” play 27 instruments between them on this date. Instruments include, Soprano, Alto, Tenor & Baritone Saxophones,Piccolo, Flute, Alto Flute, Bass Flute, Clarinet, Bass Clarinet, Acoustic & Electric Guitars, Vibraphone, Glockenspiel, Acoustic Piano, Mini Moog, Melodica, Harmonica, Trumpet, Acoustic Bass, Drums, Balifone, Kalimba, Recorder, Wood Flute, Gongs, Vocals, & Misc. Percussion.After 5 years the band separated with each member to go on to tour and join the bands of people like Christian McBride, Poncho Sanchez, Billy Childs, Strunz & Farrar and others!

***************

Gerry Gibbs And The Thrasher Band - Faces Unknown (2006)

Gerry Gibbs And The Thrasher Band - Faces Unknown (2006)

Track List:

01. The Caribean Song [6:09]
02. Chameleon [6:47]
03. Maiden Voyage [8:51]
04. Blue Monk [6:37]
05. The Aberdoor: Dedicated to John Abercrombie [5:47]
06. Patrice Rushen (aka The 70's Song) [6:00]
07. August [6:14]
08. Between Friends (for Chuck Glave) [6:38]
09. Stella By Starlight [4:34]
10. UM [4:47]
11. When I Close My Eyes and Go To a Place I've Never Been Before [1:38]
12. Slippery [7:12]
13. West [7:55]

Personnel:
Gerry Gibbs - Drums, African Thumb Piano, Quica, Gongs, African Slit Drum, Wind Chimes and Rain Stick
Andy Langham - Acoustic Piano, Fender Rhodes, Mini Moog, Cosmic Outer Space Synth and Orchestral Bells
Hamilton Price - Acoustic Bass
Justin Vasquez - Soprano and Alto Sax, Flute (ТгаскЗ), Computer Generated Soundscapes, Toy Xylophone, Voice and Melodica
Rob Hardt - Tenor Sax, Clarinet, Piccolo, Flute, Alto Flute and Wooden Flute, All Flute Solos
Eric Hargett - Baritone Sax, Electric Tenor Sax, Bass Clarinet and Flute (Track 3)

Exact Audio Copy V1.3 from 2. September 2016

EAC extraction logfile from 21. July 2018, 19:30

Gerry Gibbs and The Thrasher Band / Faces Unknown

Used drive : HL-DT-STDVDRAM GH24NSB0 Adapter: 1 ID: 0

Read mode : Secure
Utilize accurate stream : Yes
Defeat audio cache : Yes
Make use of C2 pointers : No

Read offset correction : 6
Overread into Lead-In and Lead-Out : No
Fill up missing offset samples with silence : Yes
Delete leading and trailing silent blocks : No
Null samples used in CRC calculations : Yes
Used interface : Native Win32 interface for Win NT & 2000
Gap handling : Appended to previous track

Used output format : User Defined Encoder
Selected bitrate : 1024 kBit/s
Quality : High
Add ID3 tag : No
Command line compressor : C:\Program Files (x86)\Exact Audio Copy\FLAC\FLAC.EXE
Additional command line options : -V -8 -T "Genre=%genre%" -T "Artist=%artist%" -T "Title=%title%" -T "Album=%albumtitle%" -T "Date=%year%" -T "Tracknumber=%tracknr%" -T "Comment=%comment%" %source%


TOC of the extracted CD

Track | Start | Length | Start sector | End sector
––––––––––––––––––––––––––––-
1 | 0:00.00 | 6:08.56 | 0 | 27655
2 | 6:08.56 | 6:46.42 | 27656 | 58147
3 | 12:55.23 | 8:50.72 | 58148 | 97969
4 | 21:46.20 | 6:36.60 | 97970 | 127729
5 | 28:23.05 | 5:47.03 | 127730 | 153757
6 | 34:10.08 | 6:00.36 | 153758 | 180793
7 | 40:10.44 | 6:13.73 | 180794 | 208841
8 | 46:24.42 | 6:38.23 | 208842 | 238714
9 | 53:02.65 | 4:34.16 | 238715 | 259280
10 | 57:37.06 | 4:47.30 | 259281 | 280835
11 | 62:24.36 | 1:38.05 | 280836 | 288190
12 | 64:02.41 | 7:12.21 | 288191 | 320611
13 | 71:14.62 | 7:55.03 | 320612 | 356239


Track 1

Filename D:\Music\MG rips\Terry Gibbs and the Thrasher Band - Faces Unknown - 2006 (SMSJazz) [FLAC]\01 - The Caribean Song.wav

Pre-gap length 0:00:02.00

Peak level 100.0 %
Extraction speed 1.2 X
Track quality 100.0 %
Test CRC 68252532
Copy CRC 68252532
Accurately ripped (confidence 1) [15A0BCF8] (AR v2)
Copy OK

Track 2

Filename D:\Music\MG rips\Terry Gibbs and the Thrasher Band - Faces Unknown - 2006 (SMSJazz) [FLAC]\02 - Chameleon.wav

Peak level 100.0 %
Extraction speed 1.4 X
Track quality 100.0 %
Test CRC 05102305
Copy CRC 05102305
Accurately ripped (confidence 1) [8935DFAC] (AR v2)
Copy OK

Track 3

Filename D:\Music\MG rips\Terry Gibbs and the Thrasher Band - Faces Unknown - 2006 (SMSJazz) [FLAC]\03 - Maiden Voyage.wav

Peak level 100.0 %
Extraction speed 1.7 X
Track quality 100.0 %
Test CRC 0558E4B3
Copy CRC 0558E4B3
Accurately ripped (confidence 1) [BFADFDD6] (AR v2)
Copy OK

Track 4

Filename D:\Music\MG rips\Terry Gibbs and the Thrasher Band - Faces Unknown - 2006 (SMSJazz) [FLAC]\04 - Blue Monk.wav

Peak level 100.0 %
Extraction speed 1.8 X
Track quality 100.0 %
Test CRC 67CC19F8
Copy CRC 67CC19F8
Accurately ripped (confidence 1) [7530D0D7] (AR v2)
Copy OK

Track 5

Filename D:\Music\MG rips\Terry Gibbs and the Thrasher Band - Faces Unknown - 2006 (SMSJazz) [FLAC]\05 - The Aberdoor- Dedicated to John Abercrombie.wav

Peak level 99.6 %
Extraction speed 1.9 X
Track quality 100.0 %
Test CRC 94B7FBB1
Copy CRC 94B7FBB1
Accurately ripped (confidence 1) [DE1BE6D9] (AR v2)
Copy OK

Track 6

Filename D:\Music\MG rips\Terry Gibbs and the Thrasher Band - Faces Unknown - 2006 (SMSJazz) [FLAC]\06 - Patrice Rushen (aka The 70's Song).wav

Peak level 100.0 %
Extraction speed 2.0 X
Track quality 100.0 %
Test CRC 25FD23E0
Copy CRC 25FD23E0
Accurately ripped (confidence 1) [CC4A85D2] (AR v2)
Copy OK

Track 7

Filename D:\Music\MG rips\Terry Gibbs and the Thrasher Band - Faces Unknown - 2006 (SMSJazz) [FLAC]\07 - August.wav

Peak level 100.0 %
Extraction speed 2.1 X
Track quality 100.0 %
Test CRC 883678F0
Copy CRC 883678F0
Accurately ripped (confidence 1) [1EFA93BE] (AR v2)
Copy OK

Track 8

Filename D:\Music\MG rips\Terry Gibbs and the Thrasher Band - Faces Unknown - 2006 (SMSJazz) [FLAC]\08 - Between Friends (for Chuck Glave).wav

Peak level 100.0 %
Extraction speed 2.2 X
Track quality 100.0 %
Test CRC 5CEDB633
Copy CRC 5CEDB633
Accurately ripped (confidence 1) [B5BA12DA] (AR v2)
Copy OK

Track 9

Filename D:\Music\MG rips\Terry Gibbs and the Thrasher Band - Faces Unknown - 2006 (SMSJazz) [FLAC]\09 - Stella By Starlight.wav

Peak level 100.0 %
Extraction speed 2.0 X
Track quality 99.9 %
Test CRC 9BFC7314
Copy CRC 9BFC7314
Accurately ripped (confidence 1) [7A5B1C38] (AR v2)
Copy OK

Track 10

Filename D:\Music\MG rips\Terry Gibbs and the Thrasher Band - Faces Unknown - 2006 (SMSJazz) [FLAC]\10 - UM.wav

Peak level 100.0 %
Extraction speed 2.3 X
Track quality 100.0 %
Test CRC DB511151
Copy CRC DB511151
Accurately ripped (confidence 1) [6BA7B50B] (AR v2)
Copy OK

Track 11

Filename D:\Music\MG rips\Terry Gibbs and the Thrasher Band - Faces Unknown - 2006 (SMSJazz) [FLAC]\11 - When I Close My Eyes and Go To a Place I've Never Been Before.wav

Peak level 67.8 %
Extraction speed 1.9 X
Track quality 100.0 %
Test CRC 1033F093
Copy CRC 1033F093
Accurately ripped (confidence 1) [0F445393] (AR v2)
Copy OK

Track 12

Filename D:\Music\MG rips\Terry Gibbs and the Thrasher Band - Faces Unknown - 2006 (SMSJazz) [FLAC]\12 - Slippery.wav

Peak level 100.0 %
Extraction speed 2.5 X
Track quality 100.0 %
Test CRC E2E49392
Copy CRC E2E49392
Accurately ripped (confidence 1) [93116637] (AR v2)
Copy OK

Track 13

Filename D:\Music\MG rips\Terry Gibbs and the Thrasher Band - Faces Unknown - 2006 (SMSJazz) [FLAC]\13 - West.wav

Peak level 100.0 %
Extraction speed 2.7 X
Track quality 100.0 %
Test CRC 1618FEF4
Copy CRC 1618FEF4
Cannot be verified as accurate (confidence 1) [1B2A7248], AccurateRip returned [85D670FE] (AR v2)
Copy OK


12 track(s) accurately ripped
1 track(s) could not be verified as accurate

Some tracks could not be verified as accurate

No errors occurred

End of status report

==== Log checksum EB8B0C9F83807A1FB259B02FA6E7CA380187BCE86D386A0DB6A7222F84C6F0BE ====

Gerry Gibbs And The Thrasher Band - Faces Unknown (2006)


All thanks go to Musicgate

>>> My Blog <<<

DOWNLOAD: