Subcategories

Gerry Mulligan Quartet - Reunion With Chet Baker (1957) [Re-Up]

Posted By: Designol
Gerry Mulligan Quartet - Reunion With Chet Baker (1957) [Re-Up]

Gerry Mulligan Quartet - Reunion With Chet Baker (1957)
EAC | FLAC | Tracks (Cue&Log) ~ 403 Mb | Scans included | Time: 01:08:10
Cool, Mainstream Jazz, West Coast | Label: EMI-Manhattan | # CDP 7 46857 2

The Gerry Mulligan Quartet of 1952-53 was one of the best-loved jazz groups of the decade and it made stars out of both the leader and trumpeter Chet Baker. Mulligan and Baker had very few reunions after 1953 but this particular CD from 1957 is an exception. Although not quite possessing the magic of the earlier group, the music is quite enjoyable and the interplay between the two horns is still special. With expert backup by bassist Henry Grimes and drummer Dave Bailey, these 13 selections (plus two new alternate takes) should please fans of both Mulligan and Baker.

Review by Scott Yanow, Allmusic.com

Gerry Mulligan Quartet - Reunion With Chet Baker (1957) [Re-Up]



Gerry Mulligan Quartet - Reunion With Chet Baker (1957) [Re-Up]



Tracklist:

01. Reunion (04:08)
02. When Your Lover Has Gone (05:09)
03. Stardust (04:46)
04. My Heart Belongs To Daddy (04:14)
05. Jersey Bounce (04:28)
06. The Surrey With The Fringe On Top (04:44)
07. Trav'lin' Light (03:44)
08. Trav'lin' Light (Alternate Take) (04:34)
09. Ornithology (05:14)
10. People Will Say We're In Love (03:43)
11. The Song Is You (03:23)
12. Gee Baby, Ain't I Good To You (03:36)
13. Gee Baby, Ain't I Good To You (Alternate Take) (03:33)
14. I Got Rhythm (06:01)
15. All The Things You Are (06:46)


Exact Audio Copy V1.0 beta 4 from 7. December 2014

EAC extraction logfile from 5. February 2016, 21:42

Gerry Mulligan Quartet / Reunion With Chet Baker

Used drive : TSSTcorpCDDVDW SH-224DB Adapter: 1 ID: 0

Read mode : Secure
Utilize accurate stream : Yes
Defeat audio cache : Yes
Make use of C2 pointers : No

Read offset correction : 6
Overread into Lead-In and Lead-Out : No
Fill up missing offset samples with silence : Yes
Delete leading and trailing silent blocks : No
Null samples used in CRC calculations : Yes
Used interface : Native Win32 interface for Win NT & 2000
Gap handling : Appended to previous track

Used output format : User Defined Encoder
Selected bitrate : 896 kBit/s
Quality : High
Add ID3 tag : No
Command line compressor : C:\Program Files\Exact Audio Copy\Flac\flac.exe
Additional command line options : -6 -V -T "ARTIST=%artist%" -T "TITLE=%title%" -T "ALBUM=%albumtitle%" -T "DATE=%year%" -T "TRACKNUMBER=%tracknr%" -T "GENRE=%genre%" -T "COMMENT=%comment%" %source% -o %dest%


TOC of the extracted CD

Track | Start | Length | Start sector | End sector
––––––––––––––––––––––––––––-
1 | 0:00.33 | 4:08.67 | 33 | 18699
2 | 4:09.25 | 5:09.58 | 18700 | 41932
3 | 9:19.08 | 4:46.10 | 41933 | 63392
4 | 14:05.18 | 4:14.70 | 63393 | 82512
5 | 18:20.13 | 4:28.67 | 82513 | 102679
6 | 22:49.05 | 4:44.15 | 102680 | 123994
7 | 27:33.20 | 3:44.05 | 123995 | 140799
8 | 31:17.25 | 4:34.63 | 140800 | 161412
9 | 35:52.13 | 5:14.10 | 161413 | 184972
10 | 41:06.23 | 3:43.30 | 184973 | 201727
11 | 44:49.53 | 3:23.35 | 201728 | 216987
12 | 48:13.13 | 3:36.72 | 216988 | 233259
13 | 51:50.10 | 3:33.40 | 233260 | 249274
14 | 55:23.50 | 6:01.35 | 249275 | 276384
15 | 61:25.10 | 6:46.15 | 276385 | 306849


Track 1

Filename C:\New Folder\01 - Reunion.wav

Pre-gap length 0:00:02.33

Peak level 89.5 %
Extraction speed 2.0 X
Track quality 100.0 %
Test CRC BF1EA4C2
Copy CRC BF1EA4C2
Accurately ripped (confidence 3) [6C4A0EBE] (AR v2)
Copy OK

Track 2

Filename C:\New Folder\02 - When Your Lover Has Gone.wav

Pre-gap length 0:00:01.00

Peak level 85.6 %
Extraction speed 1.9 X
Track quality 99.9 %
Test CRC 12EF2490
Copy CRC 12EF2490
Accurately ripped (confidence 3) [D2B1E20D] (AR v2)
Copy OK

Track 3

Filename C:\New Folder\03 - Stardust.wav

Pre-gap length 0:00:00.38

Peak level 76.4 %
Extraction speed 1.9 X
Track quality 99.9 %
Test CRC 74D77794
Copy CRC 74D77794
Accurately ripped (confidence 3) [B993B106] (AR v2)
Copy OK

Track 4

Filename C:\New Folder\04 - My Heart Belongs To Daddy.wav

Pre-gap length 0:00:01.03

Peak level 77.9 %
Extraction speed 1.8 X
Track quality 99.9 %
Test CRC 67B60D5B
Copy CRC 67B60D5B
Accurately ripped (confidence 3) [F33FCE5D] (AR v2)
Copy OK

Track 5

Filename C:\New Folder\05 - Jersey Bounce.wav

Pre-gap length 0:00:00.43

Peak level 83.2 %
Extraction speed 1.9 X
Track quality 99.9 %
Test CRC DFE54C47
Copy CRC DFE54C47
Accurately ripped (confidence 2) [8F00B1AC] (AR v2)
Copy OK

Track 6

Filename C:\New Folder\06 - The Surrey With The Fringe On Top.wav

Peak level 77.2 %
Extraction speed 1.9 X
Track quality 99.9 %
Test CRC 212235B1
Copy CRC 212235B1
Accurately ripped (confidence 3) [78D1EE04] (AR v2)
Copy OK

Track 7

Filename C:\New Folder\07 - Trav'lin' Light.wav

Pre-gap length 0:00:00.27

Peak level 70.6 %
Extraction speed 1.8 X
Track quality 99.9 %
Test CRC 817EED3A
Copy CRC 817EED3A
Accurately ripped (confidence 3) [CDBEC7DC] (AR v2)
Copy OK

Track 8

Filename C:\New Folder\08 - Trav'lin' Light (Alternate Take).wav

Pre-gap length 0:00:01.10

Peak level 78.0 %
Extraction speed 2.1 X
Track quality 100.0 %
Test CRC A12230AB
Copy CRC A12230AB
Accurately ripped (confidence 3) [9E4EAB78] (AR v2)
Copy OK

Track 9

Filename C:\New Folder\09 - Ornithology.wav

Pre-gap length 0:00:00.60

Peak level 92.3 %
Extraction speed 2.1 X
Track quality 100.0 %
Test CRC BFC77ED6
Copy CRC BFC77ED6
Accurately ripped (confidence 3) [5EF069EE] (AR v2)
Copy OK

Track 10

Filename C:\New Folder\10 - People Will Say We're In Love.wav

Pre-gap length 0:00:00.18

Peak level 73.5 %
Extraction speed 1.8 X
Track quality 99.9 %
Test CRC 0EBE16F5
Copy CRC 0EBE16F5
Accurately ripped (confidence 3) [91829875] (AR v2)
Copy OK

Track 11

Filename C:\New Folder\11 - The Song Is You.wav

Pre-gap length 0:00:00.45

Peak level 79.6 %
Extraction speed 2.0 X
Track quality 100.0 %
Test CRC C040B52D
Copy CRC C040B52D
Accurately ripped (confidence 3) [9BF6B609] (AR v2)
Copy OK

Track 12

Filename C:\New Folder\12 - Gee Baby, Ain't I Good To You.wav

Pre-gap length 0:00:00.38

Peak level 64.6 %
Extraction speed 2.0 X
Track quality 100.0 %
Test CRC 3F30DA95
Copy CRC 3F30DA95
Accurately ripped (confidence 3) [5F32848F] (AR v2)
Copy OK

Track 13

Filename C:\New Folder\13 - Gee Baby, Ain't I Good To You (Alternate Take).wav

Pre-gap length 0:00:00.15

Peak level 65.3 %
Extraction speed 2.0 X
Track quality 100.0 %
Test CRC 387B7AB8
Copy CRC 387B7AB8
Accurately ripped (confidence 2) [8C47D6C5] (AR v2)
Copy OK

Track 14

Filename C:\New Folder\14 - I Got Rhythm.wav

Pre-gap length 0:00:00.35

Peak level 98.4 %
Extraction speed 1.8 X
Track quality 99.9 %
Test CRC DE7E5842
Copy CRC DE7E5842
Accurately ripped (confidence 3) [E76476C5] (AR v2)
Copy OK

Track 15

Filename C:\New Folder\15 - All The Things You Are.wav

Pre-gap length 0:00:00.62

Peak level 61.8 %
Extraction speed 2.2 X
Track quality 100.0 %
Test CRC 288A083F
Copy CRC 288A083F
Accurately ripped (confidence 2) [36E7D2B8] (AR v2)
Copy OK


All tracks accurately ripped

No errors occurred

End of status report

–– CUETools DB Plugin V2.1.4

[CTDB TOCID: RSz3FyC0ieA.szSTH2vOEs0WIgo-] found
Submit result: RSz3FyC0ieA.szSTH2vOEs0WIgo- has been confirmed
Track | CTDB Status
1 | (2/5) Accurately ripped
2 | (5/5) Accurately ripped
3 | (5/5) Accurately ripped
4 | (5/5) Accurately ripped
5 | (5/5) Accurately ripped
6 | (5/5) Accurately ripped
7 | (5/5) Accurately ripped
8 | (5/5) Accurately ripped
9 | (5/5) Accurately ripped
10 | (5/5) Accurately ripped
11 | (5/5) Accurately ripped
12 | (5/5) Accurately ripped
13 | (5/5) Accurately ripped
14 | (5/5) Accurately ripped
15 | (5/5) Accurately ripped


==== Log checksum BBAB54808210449D1C020CE3E2F92793D2D73681F4DF62597EBF4D4DC709A71B ====

foobar2000 1.2 / Dynamic Range Meter 1.1.1
log date: 2016-03-19 16:06:11

––––––––––––––––––––––––––––––––––––––––
Analyzed: Gerry Mulligan Quartet / Reunion With Chet Baker
––––––––––––––––––––––––––––––––––––––––

DR Peak RMS Duration Track
––––––––––––––––––––––––––––––––––––––––
DR14 -0.96 dB -17.03 dB 4:09 01-Reunion
DR13 -1.34 dB -17.42 dB 5:10 02-When Your Lover Has Gone
DR14 -2.34 dB -19.38 dB 4:46 03-Stardust
DR13 -2.17 dB -18.47 dB 4:15 04-My Heart Belongs To Daddy
DR13 -1.59 dB -18.68 dB 4:29 05-Jersey Bounce
DR13 -2.24 dB -18.03 dB 4:44 06-The Surrey With The Fringe On Top
DR14 -3.02 dB -19.97 dB 3:44 07-Trav'lin' Light
DR12 -2.16 dB -18.67 dB 4:35 08-Trav'lin' Light (Alternate Take)
DR16 -0.70 dB -19.24 dB 5:14 09-Ornithology
DR11 -2.67 dB -17.41 dB 3:43 10-People Will Say We're In Love
DR11 -1.97 dB -16.38 dB 3:23 11-The Song Is You
DR13 -3.79 dB -19.30 dB 3:37 12-Gee Baby, Ain't I Good To You
DR13 -3.69 dB -20.12 dB 3:34 13-Gee Baby, Ain't I Good To You (Alternate Take)
DR14 -0.14 dB -16.53 dB 6:01 14-I Got Rhythm
DR13 -4.17 dB -20.30 dB 6:46 15-All The Things You Are
––––––––––––––––––––––––––––––––––––––––

Number of tracks: 15
Official DR value: DR13

Samplerate: 44100 Hz
Channels: 2
Bits per sample: 16
Bitrate: 775 kbps
Codec: FLAC
================================================================================

Gerry Mulligan Quartet - Reunion With Chet Baker (1957) [Re-Up]

Gerry Mulligan Quartet - Reunion With Chet Baker (1957) [Re-Up]