Tags
Language
Tags

Gilbert Bezzina, Ensemble Baroque de Nice - Antonio Vivaldi: Rosmira Fedele (2003)

Posted By: ArlegZ
Gilbert Bezzina, Ensemble Baroque de Nice - Antonio Vivaldi: Rosmira Fedele (2003)

Gilbert Bezzina, Ensemble Baroque de Nice - Antonio Vivaldi: Rosmira Fedele (2003)
EAC | FLAC | Image (Cue & Log) ~ 855 Mb | Total time: 76:19+61:40+31:18 | Scans included
Classical | Label: Dynamic | # 437/1-3 | Recorded: 2003

In collaboration with the Opéra de Nice and with the Ensemble Baroque de Nice, Dynamic releases a Vivaldian rarity, Rosmira Fedele, first staged at Venice’s Teatro Sant’Angelo on 27th January 1738. Written on a libretto by Silvio Stampiglia, Rosmira Fedele is the last opera by Vivaldi that has come down to us. Written three years before the composer’s death, this work heralds the end of one of the most fertile theatrical careers in the history of music.
On the model of Dorilla in Tempe (1734) and Bajazet (1735), and unlike the compilations of fashionable arias which were mechanically produced, then, by many composers, Rosmira is a pastiche - a wide-spread practice in that day, and one which was considered artistically valid, according to Vivaldi’s own words; many parts, however, were written ex novo, with the Venetian composer keeping for himself the best passages of the opera, from a musical and dramatic point of view.
The beautiful mezzo voice of Marianna Pizzolato stands out in the cast conducted by Gilbert Bezzina.

Performer:
Rosmira - Marianna Pizzolato
Partenope - Claire Brua
Arsace - Salomé Haller
Ersilia - Rossana Bertini
Armindo - Jacek Laszczkowski
Emilio - Philippe Cantor
Ormonte - John Elwes
Ensemble Baroque de Nice
Conductor - Gilbert Bezzina

Track List:
CD1:
01. Introduction. Allegro assai
02. Andante
03. Allegro assai
04. Atto I. Arsace (Armindo)
05. Fra l'orror del grave affanno (Armindo)
06. Ah, ingannator! (Rosmira)
07. Pensa che dei tacer (Rosmira)
08. Rosmira, oh Dio, Rosmira (Arsace)
09. Sei caro allor (Partenope)
10. I novelli amor tuoi (Rosmira)
11. La rondinella (Arsace)
12. Segno dell'idol mio (Ersilla)
13. Aver un'anima (Ersilla)
14. Emilio venga (Partenope)
15. Già resvegliar (Emilio)
16. Arsace tu sarai (Partenope)
17. Sempre la fiamma (Ormonte)
18. Eurimene al cimento (Arsace)
19. È follia (Rosmira)
20. Renditi oppure estinto (Emilio)
21. Ti circondi (Coro)
CD2:
01. Atto II. Olà, de' ferri il peso (Partenope)
02. Il mio caro e dolce amore (Partenope)
03. Ti bramo amico (Arsace)
04. Vorrei dirti (Arsace)
05. Non può darsi (Ormonte)
06. Prigionier che fa ritorno (Emilio)
07. Deh, perchè non volesti (Ersilla)
08. Armor mi disse (Ersilla)
09. A pro di chi t'offese (Partenope)
10. Se fra turbini (Ormonte)
11. Quanto godo, Eurimene (Armindo)
12. Leone sdegnoso (Armindo)
13. Gira guardando intorno
14. Imparate (Rosmira)
15. Rosmira, a me deh riedi (Arsace)
16. Un core infedele (Arsace, Partenope, Rosmira)
CD3:
01. Atto III. Rosmira, ove ti guida (Arsace)
02. Con la face di Megera (Rosmira)
03. Che pensi Arsace? (Arsace)
04. La balla mia (Arsace)
05. Regina ecco il momento (Emilio)
06. In mezzo (Partenope)
07. Che pensi? (Ersilla)
08. Chi mai (Ersilla)
09. Leggi Ormonte (Partenope)
10. Viva viva Partenope viva (Coro)


Exact Audio Copy V1.6 from 23. October 2020

EAC extraction logfile from 27. November 2021, 16:26

Gilbert Bezzina, Ensemble Baroque de Nice / Vivaldi - Rosmira Fedele CD1

Used drive : PIONEER DVD-RW DVR-218L Adapter: 1 ID: 0

Read mode : Secure
Utilize accurate stream : Yes
Defeat audio cache : Yes
Make use of C2 pointers : No

Read offset correction : 6
Overread into Lead-In and Lead-Out : No
Fill up missing offset samples with silence : Yes
Delete leading and trailing silent blocks : No
Null samples used in CRC calculations : Yes
Used interface : Native Win32 interface for Win NT & 2000

Used output format : User Defined Encoder
Selected bitrate : 128 kBit/s
Quality : High
Add ID3 tag : No
Command line compressor : C:\Program Files\Exact Audio Copy\Flac\flac.exe
Additional command line options : -V -8 -T "Date=%year%" -T "Genre=%genre%" %source%


TOC of the extracted CD

Track | Start | Length | Start sector | End sector
––––––––––––––––––––––––––––-
1 | 0:00.00 | 1:53.02 | 0 | 8476
2 | 1:53.02 | 1:43.18 | 8477 | 16219
3 | 3:36.20 | 3:05.15 | 16220 | 30109
4 | 6:41.35 | 4:23.65 | 30110 | 49899
5 | 11:05.25 | 6:08.12 | 49900 | 77511
6 | 17:13.37 | 1:28.43 | 77512 | 84154
7 | 18:42.05 | 4:43.07 | 84155 | 105386
8 | 23:25.12 | 5:07.68 | 105387 | 128479
9 | 28:33.05 | 4:50.00 | 128480 | 150229
10 | 33:23.05 | 1:24.25 | 150230 | 156554
11 | 34:47.30 | 7:54.25 | 156555 | 192129
12 | 42:41.55 | 1:26.00 | 192130 | 198579
13 | 44:07.55 | 6:39.70 | 198580 | 228574
14 | 50:47.50 | 1:59.52 | 228575 | 237551
15 | 52:47.27 | 5:49.18 | 237552 | 263744
16 | 58:36.45 | 2:01.72 | 263745 | 272891
17 | 60:38.42 | 4:12.70 | 272892 | 291861
18 | 64:51.37 | 2:51.15 | 291862 | 304701
19 | 67:42.52 | 5:09.20 | 304702 | 327896
20 | 72:51.72 | 1:32.10 | 327897 | 334806
21 | 74:24.07 | 1:53.63 | 334807 | 343344


Range status and errors

Selected range

Filename C:\ArlegZ\Vivaldi - Rosmira Fedele - Gilbert Bezzina CD1.wav

Peak level 93.3 %
Extraction speed 2.1 X
Range quality 99.9 %
Test CRC 1CB7E771
Copy CRC 1CB7E771
Copy OK

No errors occurred


AccurateRip summary

Track 1 accurately ripped (confidence 2) [3E0CAF56] (AR v2)
Track 2 accurately ripped (confidence 2) [2D66CDDF] (AR v2)
Track 3 accurately ripped (confidence 2) [29FD24B2] (AR v2)
Track 4 accurately ripped (confidence 2) [FCCD444F] (AR v2)
Track 5 accurately ripped (confidence 2) [77008761] (AR v2)
Track 6 accurately ripped (confidence 2) [A2D873CF] (AR v2)
Track 7 accurately ripped (confidence 2) [AF60E720] (AR v2)
Track 8 accurately ripped (confidence 2) [5497CBFE] (AR v2)
Track 9 accurately ripped (confidence 2) [7D7FECF3] (AR v2)
Track 10 accurately ripped (confidence 2) [BC9E95CF] (AR v2)
Track 11 accurately ripped (confidence 2) [7A724A78] (AR v2)
Track 12 accurately ripped (confidence 2) [4194231A] (AR v2)
Track 13 accurately ripped (confidence 2) [7AA17AD9] (AR v2)
Track 14 accurately ripped (confidence 2) [E8B365A8] (AR v2)
Track 15 accurately ripped (confidence 2) [26B9AB56] (AR v2)
Track 16 accurately ripped (confidence 2) [35597426] (AR v2)
Track 17 accurately ripped (confidence 2) [FB5FFEB8] (AR v2)
Track 18 accurately ripped (confidence 2) [5E36C2C7] (AR v2)
Track 19 accurately ripped (confidence 2) [867B963C] (AR v2)
Track 20 accurately ripped (confidence 2) [3373E60A] (AR v2)
Track 21 accurately ripped (confidence 2) [B5A14383] (AR v2)

All tracks accurately ripped

End of status report

–– CUETools DB Plugin V2.1.6

[CTDB TOCID: OGGhWndpewf8MSH2aKZxqYFOXI0-] found
Submit result: OGGhWndpewf8MSH2aKZxqYFOXI0- has been confirmed
Track | CTDB Status
1 | (2/2) Accurately ripped
2 | (2/2) Accurately ripped
3 | (2/2) Accurately ripped
4 | (2/2) Accurately ripped
5 | (2/2) Accurately ripped
6 | (2/2) Accurately ripped
7 | (2/2) Accurately ripped
8 | (2/2) Accurately ripped
9 | (2/2) Accurately ripped
10 | (2/2) Accurately ripped
11 | (2/2) Accurately ripped
12 | (2/2) Accurately ripped
13 | (2/2) Accurately ripped
14 | (2/2) Accurately ripped
15 | (2/2) Accurately ripped
16 | (2/2) Accurately ripped
17 | (2/2) Accurately ripped
18 | (2/2) Accurately ripped
19 | (2/2) Accurately ripped
20 | (1/2) Accurately ripped
21 | (2/2) Accurately ripped


==== Log checksum 4540CEB85E3DAFB8CAB5E68010F7322F2E0531EAC7D89F3503A5F258B2A83E3B ====


Exact Audio Copy V1.6 from 23. October 2020

EAC extraction logfile from 27. November 2021, 17:44

Gilbert Bezzina, Ensemble Baroque de Nice / Vivaldi - Rosmira Fedele CD2

Used drive : PIONEER DVD-RW DVR-218L Adapter: 1 ID: 0

Read mode : Secure
Utilize accurate stream : Yes
Defeat audio cache : Yes
Make use of C2 pointers : No

Read offset correction : 6
Overread into Lead-In and Lead-Out : No
Fill up missing offset samples with silence : Yes
Delete leading and trailing silent blocks : No
Null samples used in CRC calculations : Yes
Used interface : Native Win32 interface for Win NT & 2000

Used output format : User Defined Encoder
Selected bitrate : 128 kBit/s
Quality : High
Add ID3 tag : No
Command line compressor : C:\Program Files\Exact Audio Copy\Flac\flac.exe
Additional command line options : -V -8 -T "Date=%year%" -T "Genre=%genre%" %source%


TOC of the extracted CD

Track | Start | Length | Start sector | End sector
––––––––––––––––––––––––––––-
1 | 0:00.00 | 3:52.25 | 0 | 17424
2 | 3:52.25 | 4:53.02 | 17425 | 39401
3 | 8:45.27 | 1:03.13 | 39402 | 44139
4 | 9:48.40 | 6:45.15 | 44140 | 74529
5 | 16:33.55 | 3:51.22 | 74530 | 91876
6 | 20:25.02 | 6:27.05 | 91877 | 120906
7 | 26:52.07 | 0:35.63 | 120907 | 123594
8 | 27:27.70 | 5:41.57 | 123595 | 149226
9 | 33:09.52 | 3:05.68 | 149227 | 163169
10 | 36:15.45 | 5:03.00 | 163170 | 185894
11 | 41:18.45 | 1:24.45 | 185895 | 192239
12 | 42:43.15 | 5:03.30 | 192240 | 214994
13 | 47:46.45 | 0:52.15 | 214995 | 218909
14 | 48:38.60 | 4:14.07 | 218910 | 237966
15 | 52:52.67 | 4:44.68 | 237967 | 259334
16 | 57:37.60 | 4:01.10 | 259335 | 277419


Range status and errors

Selected range

Filename C:\ArlegZ\Vivaldi - Rosmira Fedele - Gilbert Bezzina CD2.wav

Peak level 90.5 %
Extraction speed 1.9 X
Range quality 100.0 %
Test CRC 8D0B1F16
Copy CRC 8D0B1F16
Copy OK

No errors occurred


AccurateRip summary

Track 1 cannot be verified as accurate (confidence 4) [59BC19FD], AccurateRip returned [B71EF69A] (AR v2)
Track 2 cannot be verified as accurate (confidence 4) [09E24B00], AccurateRip returned [32D7D1B6] (AR v2)
Track 3 cannot be verified as accurate (confidence 4) [64CCC428], AccurateRip returned [92F4BEF0] (AR v2)
Track 4 cannot be verified as accurate (confidence 4) [24ED5B42], AccurateRip returned [F4C15A06] (AR v2)
Track 5 cannot be verified as accurate (confidence 4) [4D45EED3], AccurateRip returned [B4C6D47A] (AR v2)
Track 6 cannot be verified as accurate (confidence 4) [B2DF2F4D], AccurateRip returned [FD56FFE2] (AR v2)
Track 7 cannot be verified as accurate (confidence 4) [F8A2D558], AccurateRip returned [8C135C67] (AR v2)
Track 8 cannot be verified as accurate (confidence 4) [7707B7AB], AccurateRip returned [F60787D1] (AR v2)
Track 9 cannot be verified as accurate (confidence 4) [74D21C35], AccurateRip returned [BDE3BB1C] (AR v2)
Track 10 cannot be verified as accurate (confidence 4) [3F80BB27], AccurateRip returned [12E4DDFB] (AR v2)
Track 11 cannot be verified as accurate (confidence 4) [F88C50B3], AccurateRip returned [51697E7A] (AR v2)
Track 12 cannot be verified as accurate (confidence 4) [BE1FE2C4], AccurateRip returned [39C87A91] (AR v2)
Track 13 cannot be verified as accurate (confidence 4) [E8D12C3D], AccurateRip returned [45DE0FBF] (AR v2)
Track 14 cannot be verified as accurate (confidence 4) [79971144], AccurateRip returned [C2A9085B] (AR v2)
Track 15 cannot be verified as accurate (confidence 4) [CC7D8B43], AccurateRip returned [88F947E9] (AR v2)
Track 16 cannot be verified as accurate (confidence 4) [E56B8199], AccurateRip returned [82A16AC7] (AR v2)

No tracks could be verified as accurate
You may have a different pressing from the one(s) in the database

End of status report

–– CUETools DB Plugin V2.1.6

[CTDB TOCID: TtM7b9ajZVB0easduA82lMiUBDY-] found
Submit result: TtM7b9ajZVB0easduA82lMiUBDY- has been confirmed
Track | CTDB Status
1 | (2/2) Accurately ripped
2 | (2/2) Accurately ripped
3 | (2/2) Accurately ripped
4 | (2/2) Accurately ripped
5 | (2/2) Accurately ripped
6 | (2/2) Accurately ripped
7 | (2/2) Accurately ripped
8 | (2/2) Accurately ripped
9 | (2/2) Accurately ripped
10 | (2/2) Accurately ripped
11 | (2/2) Accurately ripped
12 | (2/2) Accurately ripped
13 | (2/2) Accurately ripped
14 | (2/2) Accurately ripped
15 | (2/2) Accurately ripped
16 | (2/2) Accurately ripped


==== Log checksum 5E409BBF3A82594E979910CC82B8AF1089D1D0C9DD6DA5AF01C82FE6A00219BD ====


Exact Audio Copy V1.6 from 23. October 2020

EAC extraction logfile from 27. November 2021, 18:24

Gilbert Bezzina, Ensemble Baroque de Nice / Vivaldi - Rosmira Fedele CD3

Used drive : PIONEER DVD-RW DVR-218L Adapter: 1 ID: 0

Read mode : Secure
Utilize accurate stream : Yes
Defeat audio cache : Yes
Make use of C2 pointers : No

Read offset correction : 6
Overread into Lead-In and Lead-Out : No
Fill up missing offset samples with silence : Yes
Delete leading and trailing silent blocks : No
Null samples used in CRC calculations : Yes
Used interface : Native Win32 interface for Win NT & 2000

Used output format : User Defined Encoder
Selected bitrate : 128 kBit/s
Quality : High
Add ID3 tag : No
Command line compressor : C:\Program Files\Exact Audio Copy\Flac\flac.exe
Additional command line options : -V -8 -T "Date=%year%" -T "Genre=%genre%" %source%


TOC of the extracted CD

Track | Start | Length | Start sector | End sector
––––––––––––––––––––––––––––-
1 | 0:00.00 | 2:06.55 | 0 | 9504
2 | 2:06.55 | 2:49.52 | 9505 | 22231
3 | 4:56.32 | 0:39.65 | 22232 | 25221
4 | 5:36.22 | 7:55.13 | 25222 | 60859
5 | 13:31.35 | 0:58.05 | 60860 | 65214
6 | 14:29.40 | 4:26.40 | 65215 | 85204
7 | 18:56.05 | 2:05.02 | 85205 | 94581
8 | 21:01.07 | 3:37.35 | 94582 | 110891
9 | 24:38.42 | 5:20.05 | 110892 | 134896
10 | 29:58.47 | 1:18.08 | 134897 | 140754


Range status and errors

Selected range

Filename C:\ArlegZ\Vivaldi - Rosmira Fedele - Gilbert Bezzina CD3.wav

Peak level 81.5 %
Extraction speed 1.6 X
Range quality 100.0 %
Test CRC BA6496A9
Copy CRC BA6496A9
Copy OK

No errors occurred


AccurateRip summary

Track 1 cannot be verified as accurate (confidence 3) [57D930CA], AccurateRip returned [6F1E2A1A] (AR v2)
Track 2 cannot be verified as accurate (confidence 4) [B20B6861], AccurateRip returned [DCF90173] (AR v2)
Track 3 cannot be verified as accurate (confidence 4) [C7052E8C], AccurateRip returned [727141D8] (AR v2)
Track 4 cannot be verified as accurate (confidence 4) [0A599FE8], AccurateRip returned [C26DDE5C] (AR v2)
Track 5 cannot be verified as accurate (confidence 4) [C96EF432], AccurateRip returned [E3B30E7B] (AR v2)
Track 6 cannot be verified as accurate (confidence 4) [0D4FBD73], AccurateRip returned [624A293C] (AR v2)
Track 7 cannot be verified as accurate (confidence 4) [EABA5B3A], AccurateRip returned [21763F67] (AR v2)
Track 8 cannot be verified as accurate (confidence 4) [EFFFB7BA], AccurateRip returned [9A9D0F56] (AR v2)
Track 9 cannot be verified as accurate (confidence 4) [592AAF6C], AccurateRip returned [1997E9CB] (AR v2)
Track 10 cannot be verified as accurate (confidence 4) [8EFD667F], AccurateRip returned [92EAE40C] (AR v2)

No tracks could be verified as accurate
You may have a different pressing from the one(s) in the database

End of status report

–– CUETools DB Plugin V2.1.6

[CTDB TOCID: vbEtpM18ABk6gvy58jzx8fmT_gA-] found
Submit result: vbEtpM18ABk6gvy58jzx8fmT_gA- has been confirmed
Track | CTDB Status
1 | (3/3) Accurately ripped
2 | (3/3) Accurately ripped
3 | (3/3) Accurately ripped
4 | (3/3) Accurately ripped
5 | (3/3) Accurately ripped
6 | (3/3) Accurately ripped
7 | (3/3) Accurately ripped
8 | (3/3) Accurately ripped
9 | (3/3) Accurately ripped
10 | (3/3) Accurately ripped


==== Log checksum 05C92D4EF8B0BCADE3686DFBBA2343A94F81CCEA37FB61FB057A3BBA98DB74E2 ====

Gilbert Bezzina, Ensemble Baroque de Nice - Antonio Vivaldi: Rosmira Fedele (2003)