Tags
Language
Tags

Giovani Leoni 2 - Hendrix (2016) {Casa Del Jazz}

Posted By: tiburon
Giovani Leoni 2 - Hendrix (2016) {Casa Del Jazz}

Giovani Leoni 2 - Hendrix (2016) {Casa Del Jazz}
EAC 1.1 | FLAC tracks level 8 | Cue+Log+M3U | Full Scans 600dpi | 357MB + 5% Recovery
MP3 CBR 320 Kbps | 110MB + 5% Recovery
Genre: Jazz, Fusion, Post-Bop

"Un progetto su Jimi Hendrix è come un progetto su Mozart: tanto complesso quanto entusiasmante. Abbiamo accettato la sfida, partendo dal presupposto che dovessimo cercare in Hendrix le caratteristiche che sottostavano al suo modo di intendere la musica, provare ad assimilarle e tradurle usando i nostri linguaggi. Abbiamo deciso di utilizzare un organico il più possibile lontano da quello che era solito usare per i suoi gruppi: una voce femminile e un violoncello (Naomi Berrill), un fender Rhodes, un synth e un pianoforte (Simone Graziano e Alessandro Lanzoni), una batteria (Stefano Tamborrino) e due sax tenori (Francesco Bigoni e Dimitri Grechi Espinoza).
Track List
01. Hey Joe
02. Angel
03. Purple Whales
04. Little Wing
05. Window On A Better World
06. Experience
07. Dark Flavour
08. Blues For Hendrix
09. The Wind Cries Mary

Recorded May 18, 2016 at Casa Del Jazz, Rome

musicians
Simone Graziano - piano, Fender Rhodes, synths
Alessandro Lanzoni - piano, Fender Rhodes, synths
Naomi Berrill - violoncello, vocals
Dimitri Grechi Espinoza - tenor sax
Francesco Bigoni - tenor sax, clarinet
Stefano Tamborrino - drums, steel guitar


Exact Audio Copy V1.1 from 23. June 2015

EAC extraction logfile from 11. July 2016, 22:29

Giovani Leoni 2 / Hendrix

Used drive : hp CDDVDW TS-H653R Adapter: 1 ID: 0

Read mode : Secure
Utilize accurate stream : Yes
Defeat audio cache : Yes
Make use of C2 pointers : No

Read offset correction : 6
Overread into Lead-In and Lead-Out : No
Fill up missing offset samples with silence : Yes
Delete leading and trailing silent blocks : No
Null samples used in CRC calculations : Yes
Used interface : Native Win32 interface for Win NT & 2000
Gap handling : Appended to previous track

Used output format : User Defined Encoder
Selected bitrate : 320 kBit/s
Quality : High
Add ID3 tag : No
Command line compressor : C:\Program Files (x86)\Exact Audio Copy\flac-1.2.1b\flac.exe
Additional command line options : -8 -V -T "ARTIST=%artist%" -T "TITLE=%title%" -T "ALBUM=%albumtitle%" -T "DATE=%year%" -T "TRACKNUMBER=%tracknr%" -T "TOTALTRACKS=%numtracks%" -T "GENRE=%genre%" -T "ALBUMARTIST=%albumartist%" -T "ALBUM ARTIST=%albumartist%" -T "COMMENT=EAC Secure Mode, Test & Copy, AccurateRip, FLAC -8" %source%


TOC of the extracted CD

Track | Start | Length | Start sector | End sector
––––––––––––––––––––––––––––-
1 | 0:00.00 | 5:43.60 | 0 | 25784
2 | 5:43.60 | 6:25.45 | 25785 | 54704
3 | 12:09.30 | 2:24.35 | 54705 | 65539
4 | 14:33.65 | 5:31.37 | 65540 | 90401
5 | 20:05.27 | 8:13.19 | 90402 | 127395
6 | 28:18.46 | 5:08.09 | 127396 | 150504
7 | 33:26.55 | 5:57.32 | 150505 | 177311
8 | 39:24.12 | 4:47.09 | 177312 | 198845
9 | 44:11.21 | 3:46.54 | 198846 | 215849


Track 1

Filename C:\Estratti con EAC\01 - Hey Joe.wav

Pre-gap length 0:00:02.00

Peak level 95.8 %
Extraction speed 2.8 X
Track quality 100.0 %
Test CRC C4DB99F4
Copy CRC C4DB99F4
Track not present in AccurateRip database
Copy OK

Track 2

Filename C:\Estratti con EAC\02 - Angel.wav

Peak level 95.6 %
Extraction speed 3.2 X
Track quality 100.0 %
Test CRC CD943398
Copy CRC CD943398
Track not present in AccurateRip database
Copy OK

Track 3

Filename C:\Estratti con EAC\03 - Purple Whales.wav

Peak level 94.4 %
Extraction speed 3.0 X
Track quality 100.0 %
Test CRC C098B731
Copy CRC C098B731
Track not present in AccurateRip database
Copy OK

Track 4

Filename C:\Estratti con EAC\04 - Little Wing.wav

Peak level 95.4 %
Extraction speed 3.6 X
Track quality 100.0 %
Test CRC 96D12444
Copy CRC 96D12444
Track not present in AccurateRip database
Copy OK

Track 5

Filename C:\Estratti con EAC\05 - Window On A Better World.wav

Peak level 95.3 %
Extraction speed 4.1 X
Track quality 100.0 %
Test CRC A30D6851
Copy CRC A30D6851
Track not present in AccurateRip database
Copy OK

Track 6

Filename C:\Estratti con EAC\06 - Experience.wav

Peak level 96.8 %
Extraction speed 4.2 X
Track quality 100.0 %
Test CRC E033B373
Copy CRC E033B373
Track not present in AccurateRip database
Copy OK

Track 7

Filename C:\Estratti con EAC\07 - Dark Flavour.wav

Peak level 94.4 %
Extraction speed 4.5 X
Track quality 100.0 %
Test CRC D14D15E1
Copy CRC D14D15E1
Track not present in AccurateRip database
Copy OK

Track 8

Filename C:\Estratti con EAC\08 - Blues For Hendrix.wav

Peak level 96.2 %
Extraction speed 4.6 X
Track quality 100.0 %
Test CRC B7B25F21
Copy CRC B7B25F21
Track not present in AccurateRip database
Copy OK

Track 9

Filename C:\Estratti con EAC\09 - The Wind Cries Mary.wav

Peak level 94.4 %
Extraction speed 3.5 X
Track quality 99.9 %
Test CRC 9A02D1D4
Copy CRC 9A02D1D4
Track not present in AccurateRip database
Copy OK


None of the tracks are present in the AccurateRip database

No errors occurred

End of status report

–– CUETools DB Plugin V2.1.6

[CTDB TOCID: 34M5QW0AwQxA3lqFkHp3ByPnxa8-] found
Submit result: already submitted
Track | CTDB Status
1 | (3/3) Accurately ripped
2 | (3/3) Accurately ripped
3 | (3/3) Accurately ripped
4 | (3/3) Accurately ripped
5 | (3/3) Accurately ripped
6 | (3/3) Accurately ripped
7 | (3/3) Accurately ripped
8 | (3/3) Accurately ripped
9 | (3/3) Accurately ripped


==== Log checksum BC8745DC679D59B7906C95783AE0C6610067AD1796717D9454691527B016F5AF ====



––––––––––––––––––––––––––––––––––––––––
Analyzed: Giovani Leoni 2 / Hendrix
––––––––––––––––––––––––––––––––––––––––

DR Peak RMS Duration Track
––––––––––––––––––––––––––––––––––––––––
DR7 -0.37 dB -11.54 dB 5:44 01-Hey Joe
DR7 -0.39 dB -11.06 dB 6:26 02-Angel
DR11 -0.50 dB -14.80 dB 2:24 03-Purple Whales
DR7 -0.40 dB -10.01 dB 5:31 04-Little Wing
DR8 -0.41 dB -13.42 dB 8:13 05-Window On A Better World
DR7 -0.28 dB -10.32 dB 5:08 06-Experience
DR14 -0.50 dB -18.67 dB 5:57 07-Dark Flavour
DR8 -0.33 dB -10.35 dB 4:47 08-Blues For Hendrix
DR12 -0.49 dB -16.75 dB 3:47 09-The Wind Cries Mary
––––––––––––––––––––––––––––––––––––––––

Number of tracks: 9
Official DR value: DR9

Samplerate: 44100 Hz
Channels: 2
Bits per sample: 16
Bitrate: 618 kbps
Codec: FLAC
================================================================================

Giovani Leoni 2 - Hendrix (2016) {Casa Del Jazz}
Giovani Leoni 2 - Hendrix (2016) {Casa Del Jazz}
Giovani Leoni 2 - Hendrix (2016) {Casa Del Jazz}


Thanks to the original ripper