Subcategories

Giya Kancheli - In L'Istesso Tempo (2005) {ECM 1767}

Posted By: tiburon
Giya Kancheli - In L'Istesso Tempo (2005) {ECM 1767}

Giya Kancheli - In L'Istesso Tempo (2005) {ECM 1767}
EAC 0.99pb5 | FLAC Image level 8 | Cue+Log | Full Scans PDF | 236MB + 5% Recovery
MP3 CBR 320 Kbps | 148MB + 5% Recovery
Genre: Classical

This is a stupendous record by one of the small handful of incontestably great living classical composers – a disc where tremendous, idiomatic performances by violinist Gidon Kremer and musical fellow travellers meets ECM’s fabled acoustics, which are perfect for music of such sparsely adorned silence. … A magnificent disc.
Track List
01. Time…And Again 25:33
For violin and piano (1996)
Gidon Kremer – violin
Oleg Maisenberg – piano

02. V & V 12:35
For violin and taped voice with string orchestra (1994)
Gidon Kremer – violin and direction

03. Piano Quartet In L’Istesso Tempo 26:06 (1997)
The Bridge Ensemble:
Mikhail Schmidt – violin
Helen Callus – viola
David Tonkonogui – violoncello
Karen Sigers – piano

Produced by Manfred Eicher


Exact Audio Copy V0.99 prebeta 5 from 4. May 2009

Отчёт EAC об извлечении, выполненном 18. октября 2010, 15:16

In l'istesso tempo / Giya Kancheli

Дисковод: Optiarc DVD RW AD-7240S Adapter: 0 ID: 0

Режим чтения : Достоверность
Использование точного потока : Да
Отключение кэша аудио : Да
Использование указателей C2 : Нет

Коррекция смещения при чтении : 48
Способность читать области Lead-in и Lead-out : Нет
Заполнение пропущенных сэмплов тишиной : Да
Удаление блоков с тишиной в начале и конце : Нет
При вычислениях CRC использовались нулевые сэмплы : Да
Интерфейс : Встроенный Win32-интерфейс для Win NT/2000

Выходной формат : Пользовательский кодировщик
Выбранный битрейт : 1024 kBit/s
Качество : Высокий
Добавление ID3-тэга : Нет
Утилита сжатия : C:\Program Files\Exact Audio Copy\Flac\flac.exe
Дополнительные параметры : -8 -V -T "ARTIST=%a" -T "TITLE=%t" -T "ALBUM=%g" -T "DATE=%y" -T "TRACKNUMBER=%n" -T "GENRE=%m" -T "COMMENT=%e" %s -o %d


TOC извлечённого CD

Трек | Старт | Длительность | Начальный сектор | Конечный сектор
––––––––––––––––––––––––––––––––––-
1 | 0:00.00 | 25:44.22 | 0 | 115821
2 | 25:44.22 | 12:47.52 | 115822 | 173398
3 | 38:31.74 | 26:06.70 | 173399 | 290918


Характеристики диапазона извлечения и сообщения об ошибках

Выбранный диапазон

Имя файла C:\Documents and Settings\Admin\Рабочий стол\EAC\In l'istesso tempo - Giya Kancheli.wav

Пиковый уровень 100.0 %
Качество диапазона 99.9 %
CRC теста D0D23263
CRC копии D0D23263
Копирование… OK

Ошибок не произошло


AccurateRip: сводка

Трек 1 точное извлечение (доверие 8) [2D295BE4]
Трек 2 точное извлечение (доверие 8) [F6B11DE2]
Трек 3 точность не определена (достоверность 8) [D616F7E2], AccurateRip вернул [66749B93]

2 трек(и) скопированы точно
1 трек(и) не удалось проверить на точность

Некоторые треки не прошли проверку на точность

Конец отчёта


––––––––––––––––––––––––––––––––––––––––
Analyzed: In l'istesso tempo / Giya Kancheli
––––––––––––––––––––––––––––––––––––––––

DR Peak RMS Duration Track
––––––––––––––––––––––––––––––––––––––––
DR17 -0.01 dB -23.86 dB 25:44 01-Time … and again
DR19 -2.13 dB -28.35 dB 12:48 02-V & V
DR20 0.00 dB -27.33 dB 26:07 03-Piano Quartet
––––––––––––––––––––––––––––––––––––––––

Number of tracks: 3
Official DR value: DR18

Samplerate: 44100 Hz
Channels: 2
Bits per sample: 16
Bitrate: 432 kbps
Codec: FLAC
================================================================================

Giya Kancheli - In L'Istesso Tempo (2005) {ECM 1767}
Giya Kancheli - In L'Istesso Tempo (2005) {ECM 1767}
Giya Kancheli - In L'Istesso Tempo (2005) {ECM 1767}


Thanks to the original ripper