Subcategories

Glass Harp - Live At The Beachland Ballroom 11.01.08 (2010)

Posted By: Andi_Deris
Glass Harp - Live At The Beachland Ballroom 11.01.08 (2010)

Glass Harp - Live At The Beachland Ballroom 11.01.08 (2010)
EAC Rip | FLAC: Tracks+Cue+Log | 507 Mb | MP3 CBR 320 kbps | 203 Mb | Scans | 40 Mb | Time: 01:14:54
Special Friends Productions | GH-892
Classic Rock, Progressive Rock, Psychedelic Rock

This show was recorded at Cleveland's Beachland Ballroom on November 1, 2008, where Glass Harp headlined a benefit concert for Roots of American Music, an organization dedicated to the preservation, performance and education about traditional American music in our schools. This CD finally captures the raw, improvisational energy and spur-of-the-moment creativity that has defined Glass Harp for decades, but until now has been heard only in a live setting and in the memories of the people who saw it.

Here, classic songs take on entirely new guises, free jams spur flurries of ideas that weave a sonic tapestry of a thousand colors, and around every corner awaits a new surprise for even the closest follower of Glass Harp's concerts and recorded output . If there were ever a collection of Glass Harp music that one might compile for friends, new listeners, or fans of inspired musicianship in general, look no further than this CD. As Daniel Pecchio points out: "This…is finally *us*".



Track Listing

01. Introduction By Jim Henke (02:11)
02. Children's Fantasy (09:20)
03. A Sign Came Trough The Window (08:28)
04. Changes (07:28)
05. Whatever Life Demands (05:57)
06. Beachland Jam (15:55)
07. Do Lord (08:21)
08. Drum Solo (01:34)
09. John The Revelator (06:12)
10. Never Is A Long Time (03:17)
11. Can You See Me (06:12)

Produced by John Sferra, Phill Keaggy, Daniel Pecchio

The Band

• Phil Keaggy - guitars, vocals
• Daniel Pecchio - bass, vocals
• John Sferra - drums, vocals

Notes

Recorded at the Beachland Ballroom, Cleveland, OH, 1 November, 2008. Live recording by Mike Talanca using a Neve 1292 micpre/ADAT HD-24HR. Recorded at 48khz/24bit.

Exact Audio Copy V0.99 prebeta 5 from 4. May 2009

EAC extraction logfile from 24. February 2011, 14:58

Glass Harp / Live At The Beachland Ballroom 11.01.08 (US GH892)

Used drive : ATAPI DVD D DH16D2S Adapter: 3 ID: 0

Read mode : Secure
Utilize accurate stream : Yes
Defeat audio cache : Yes
Make use of C2 pointers : No

Read offset correction : 6
Overread into Lead-In and Lead-Out : No
Fill up missing offset samples with silence : Yes
Delete leading and trailing silent blocks : No
Null samples used in CRC calculations : Yes
Used interface : Native Win32 interface for Win NT & 2000
Gap handling : Appended to previous track

Used output format : User Defined Encoder
Selected bitrate : 1024 kBit/s
Quality : High
Add ID3 tag : No
Command line compressor : C:\Program Files\Exact Audio Copy\FLAC\FLAC.EXE
Additional command line options : -8 -V -T "ARTIST=%a" -T "TITLE=%t" -T "ALBUM=%g" -T "DATE=%y" -T "TRACKNUMBER=%n" -T "GENRE=%m" -T "COMMENT=%e" %s -o %d


TOC of the extracted CD

Track | Start | Length | Start sector | End sector
––––––––––––––––––––––––––––-
1 | 0:00.00 | 2:10.38 | 0 | 9787
2 | 2:10.38 | 9:19.47 | 9788 | 51759
3 | 11:30.10 | 8:28.16 | 51760 | 89875
4 | 19:58.26 | 7:27.54 | 89876 | 123454
5 | 27:26.05 | 5:57.13 | 123455 | 150242
6 | 33:23.18 | 15:54.44 | 150243 | 221836
7 | 49:17.62 | 8:21.01 | 221837 | 259412
8 | 57:38.63 | 1:33.66 | 259413 | 266453
9 | 59:12.54 | 6:12.03 | 266454 | 294356
10 | 65:24.57 | 3:16.43 | 294357 | 309099
11 | 68:41.25 | 6:12.15 | 309100 | 337014


Track 1

Filename D:\Y\y\01 Introduction By Jim Henke.wav

Pre-gap length 0:00:02.00

Peak level 100.0 %
Track quality 99.9 %
Test CRC 541587B6
Copy CRC 541587B6
Copy OK

Track 2

Filename D:\Y\y\02 Children's Fantasy.wav

Peak level 99.7 %
Track quality 100.0 %
Test CRC 0B982A32
Copy CRC 0B982A32
Copy OK

Track 3

Filename D:\Y\y\03 A Sign Came Trough The Window.wav

Peak level 99.8 %
Track quality 100.0 %
Test CRC 9F615A4A
Copy CRC 9F615A4A
Copy OK

Track 4

Filename D:\Y\y\04 Changes.wav

Peak level 99.6 %
Track quality 100.0 %
Test CRC 9641A609
Copy CRC 9641A609
Copy OK

Track 5

Filename D:\Y\y\05 Whatever Life Demands.wav

Peak level 99.7 %
Track quality 100.0 %
Test CRC AF96CDD7
Copy CRC AF96CDD7
Copy OK

Track 6

Filename D:\Y\y\06 Beachland Jam.wav

Peak level 99.7 %
Track quality 100.0 %
Test CRC 029B83F4
Copy CRC 029B83F4
Copy OK

Track 7

Filename D:\Y\y\07 Do Lord.wav

Peak level 99.9 %
Track quality 100.0 %
Test CRC 3877060B
Copy CRC 3877060B
Copy OK

Track 8

Filename D:\Y\y\08 Drum Solo.wav

Peak level 100.0 %
Track quality 100.0 %
Test CRC 3B1D4777
Copy CRC 3B1D4777
Copy OK

Track 9

Filename D:\Y\y\09 John The Revelator.wav

Peak level 99.9 %
Track quality 100.0 %
Test CRC 18020FDF
Copy CRC 18020FDF
Copy OK

Track 10

Filename D:\Y\y\10 Never Is A Long Time.wav

Peak level 99.9 %
Track quality 99.9 %
Test CRC BF92BFBE
Copy CRC BF92BFBE
Copy OK

Track 11

Filename D:\Y\y\11 Can You See Me.wav

Peak level 99.9 %
Track quality 100.0 %
Test CRC 5733C82A
Copy CRC 5733C82A
Copy OK

No errors occurred

End of status report


Many thanks to the original uploader: neytiri_navi


Glass Harp 1970 Glass Harp [Remastered, 2005]
Glass Harp 1971 Synergy [Remastered, 2005]
Glass Harp 1972 It Makes Me Glad [Remastered, 2005]
Glass Harp 1997 Live! At Carnegie Hall
Glass Harp 2001 Strings Attached [Live] 2CD
Glass Harp 2003 Hourglass
Glass Harp 2004 Stark Raving Jams [Live] 3CD

Greg X. Volz 1986 The River Is Rising
Greg X. Volz 1988 Come Out Fighting
Greg X. Volz 1989 No Room In The Middle
Greg X. Volz 1991 The Exodus

Halo 1990 Halo / 1991 Heaven Calling

John Elefante - Discography (1995-2013)

John Schlitt 1995 Shake
John Schlitt 2012 The Greater Cause

Mastedon - Discography (1989-2009)

Petra 1974 Petra [Reissue 1992]
Petra 1977 Come And Join Us [Reissue 1995]
Petra 1979 Washes Whiter Than / 1981 Never Say Die [Reissue 1988]
Petra 1982 More Power To Ya
Petra 1983 Not Of This World
Petra 1984 Beat The System
Petra 1986 Captured In Time And Space (Live)
Petra 1986 Captured In Time And Space (Live) [DVD]
Petra 1986 Back To The Street
Petra 1987 This Means War!
Petra 1988 On Fire!
Petra 1989 Petra Means Rock [Compilation]
Petra 1989 Petra Praise… The Rock Cries Out
Petra 1990 Beyond Belief
Petra 1990 Beyond Belief [DVD]
Petra 1991 Unseen Power
Petra 1993 Wake-Up Call
Petra 1995 No Doubt
Petra 1997 Petra Praise 2: We Need Jesus
Petra 1998 God Fixation
Petra 2000 Double Take
Petra 2001 Revival
Petra 2003 Jekyll & Hyde
Petra 2003 The Power Of Praise [Compilation]
Petra 2006 Farewell [DVD]
II Guys From Petra 2007 Vertical Expressions
Classic Petra 2010 Back To The Rock

V.A. 1996 Never Say Dinosaur - Tribute To Petra