Tags
Language
Tags

GoGo Penguin - Man Made Object (2016) {Blue Note}

Posted By: tiburon
GoGo Penguin - Man Made Object (2016) {Blue Note}

GoGo Penguin - Man Made Object (2016) {Blue Note}
EAC 1.0b3 | FLAC tracks level 8 | Cue+Log+M3U | Full Scans 600dpi | 349MB + 5% Recovery
MP3 CBR 320 Kbps | 109MB + 5% Recovery
Genre: Jazz, Fusion
GoGo Penguin - Man Made Object (2016) {Blue Note}

Its stick or twist for GoGo Penguin as they release this, their Blue Note debut and the first of a reputed three album deal. Do they push ahead, expanding their palette of electronica seen through the prism of acoustic jazz, or retreat a tad in deference to their new paymasters by emphasising the more traditional jazz elements of their sound. Should we be concerned that the two years since their breakthrough v2.0 album suggest a creative block or difficulty coping with the raised stakes? While they would hardly be the first act to lose their nerve on entering the major label big league, it is thankfully and emphatically not the case here as "Man Made Object" develops and builds on their early promise.
Track List
01. All Res 5:15
02. Unspeakable World 4:43
03. Branches Break 4:22
04. Weird Cat 5:39
05. Quiet Mind 4:23
06. Smarra 6:31
07. Initiate 4:47
08. Gbfisysih 3:21
09. Surrender To Mountain 3:58
10. Protest 4:45

musicians
Nick Blacka - Double Bass
Rob Turner - Drums
Chris Illingworth - piano

Produced by Brendan Williams and Joseph Reiser


Exact Audio Copy V1.0 beta 3 from 29. August 2011

EAC extraction logfile from 15. April 2016, 23:18

GoGo Penguin / Man Made Object

Used drive : PLEXTOR DVDR PX-L890SA Adapter: 5 ID: 1

Read mode : Secure
Utilize accurate stream : Yes
Defeat audio cache : Yes
Make use of C2 pointers : No

Read offset correction : 6
Overread into Lead-In and Lead-Out : No
Fill up missing offset samples with silence : Yes
Delete leading and trailing silent blocks : No
Null samples used in CRC calculations : Yes
Used interface : Native Win32 interface for Win NT & 2000
Gap handling : Appended to previous track

Used output format : User Defined Encoder
Selected bitrate : 128 kBit/s
Quality : High
Add ID3 tag : No
Command line compressor : C:\Program Files (x86)\Exact Audio Copy\FLAC\FLAC.EXE
Additional command line options : -8 -V -T "ARTIST=%artist%" -T "TITLE=%title%" -T "ALBUM=%albumtitle%" -T "DATE=%year%" -T "TRACKNUMBER=%tracknr%" -T "TOTALTRACKS=%numtracks%" -T "GENRE=%genre%" -T "ALBUMARTIST=%albumartist%" -T "ALBUM ARTIST=%albumartist%" -T "COMMENT=EAC Secure Mode, Test & Copy, AccurateRip, FLAC -8" %source%


TOC of the extracted CD

Track | Start | Length | Start sector | End sector
––––––––––––––––––––––––––––-
1 | 0:00.00 | 5:15.62 | 0 | 23686
2 | 5:15.62 | 4:43.65 | 23687 | 44976
3 | 9:59.52 | 4:22.49 | 44977 | 64675
4 | 14:22.26 | 5:39.08 | 64676 | 90108
5 | 20:01.34 | 4:23.40 | 90109 | 109873
6 | 24:24.74 | 6:31.16 | 109874 | 139214
7 | 30:56.15 | 4:47.27 | 139215 | 160766
8 | 35:43.42 | 3:21.66 | 160767 | 175907
9 | 39:05.33 | 3:58.45 | 175908 | 193802
10 | 43:04.03 | 4:44.23 | 193803 | 215125


Track 1

Filename E:\01 - All Res.wav

Pre-gap length 0:00:02.00

Peak level 98.3 %
Extraction speed 3.6 X
Track quality 100.0 %
Test CRC 46828B99
Copy CRC 46828B99
Accurately ripped (confidence 17) [E4D33D18] (AR v2)
Copy OK

Track 2

Filename E:\02 - Unspeakable World.wav

Peak level 99.1 %
Extraction speed 3.4 X
Track quality 99.9 %
Test CRC 6A15EAEC
Copy CRC 6A15EAEC
Accurately ripped (confidence 17) [DE4708FA] (AR v2)
Copy OK

Track 3

Filename E:\03 - Branches Break.wav

Peak level 98.3 %
Extraction speed 4.5 X
Track quality 100.0 %
Test CRC 78E6568D
Copy CRC 78E6568D
Accurately ripped (confidence 17) [5400B078] (AR v2)
Copy OK

Track 4

Filename E:\04 - Weird Cat.wav

Peak level 98.3 %
Extraction speed 4.9 X
Track quality 100.0 %
Test CRC 774B8905
Copy CRC 774B8905
Accurately ripped (confidence 17) [C8C7FBA0] (AR v2)
Copy OK

Track 5

Filename E:\05 - Quiet Mind.wav

Peak level 98.3 %
Extraction speed 5.2 X
Track quality 100.0 %
Test CRC 8A6B2144
Copy CRC 8A6B2144
Accurately ripped (confidence 17) [C97D43A3] (AR v2)
Copy OK

Track 6

Filename E:\06 - Smarra.wav

Peak level 98.3 %
Extraction speed 5.7 X
Track quality 100.0 %
Test CRC 8161D1AF
Copy CRC 8161D1AF
Accurately ripped (confidence 17) [75A1AE51] (AR v2)
Copy OK

Track 7

Filename E:\07 - Initiate.wav

Peak level 98.3 %
Extraction speed 5.9 X
Track quality 100.0 %
Test CRC 8245CCED
Copy CRC 8245CCED
Accurately ripped (confidence 17) [5955C9EF] (AR v2)
Copy OK

Track 8

Filename E:\08 - GBFISYSIH.wav

Peak level 98.3 %
Extraction speed 5.8 X
Track quality 100.0 %
Test CRC 53107CEE
Copy CRC 53107CEE
Accurately ripped (confidence 17) [D6A05249] (AR v2)
Copy OK

Track 9

Filename E:\09 - Surrender To Mountain.wav

Peak level 98.3 %
Extraction speed 6.2 X
Track quality 100.0 %
Test CRC B63FA4BF
Copy CRC B63FA4BF
Accurately ripped (confidence 17) [16850719] (AR v2)
Copy OK

Track 10

Filename E:\10 - Protest.wav

Peak level 98.3 %
Extraction speed 6.6 X
Track quality 100.0 %
Test CRC D4246DC9
Copy CRC D4246DC9
Accurately ripped (confidence 17) [3486BD53] (AR v2)
Copy OK


All tracks accurately ripped

No errors occurred

End of status report

==== Log checksum 3FFA6E6CAD576B1EE99AFEA47BF200524FE5C1C62A82F35802F5F0247A5C4A40 ====


––––––––––––––––––––––––––––––––––––––––
Analyzed: GoGo Penguin / Man Made Object
––––––––––––––––––––––––––––––––––––––––

DR Peak RMS Duration Track
––––––––––––––––––––––––––––––––––––––––
DR8 -0.14 dB -11.00 dB 5:16 01-All Res
DR9 -0.07 dB -12.68 dB 4:44 02-Unspeakable World
DR7 -0.14 dB -11.13 dB 4:23 03-Branches Break
DR7 -0.14 dB -10.17 dB 5:39 04-Weird Cat
DR10 -0.14 dB -12.40 dB 4:24 05-Quiet Mind
DR8 -0.14 dB -11.62 dB 6:31 06-Smarra
DR11 -0.14 dB -13.94 dB 4:47 07-Initiate
DR10 -0.15 dB -14.87 dB 3:22 08-GBFISYSIH
DR10 -0.14 dB -13.77 dB 3:59 09-Surrender To Mountain
DR8 -0.14 dB -9.38 dB 4:44 10-Protest
––––––––––––––––––––––––––––––––––––––––

Number of tracks: 10
Official DR value: DR9

Samplerate: 44100 Hz
Channels: 2
Bits per sample: 16
Bitrate: 912 kbps
Codec: FLAC
================================================================================

GoGo Penguin - Man Made Object (2016) {Blue Note}
GoGo Penguin - Man Made Object (2016) {Blue Note}
GoGo Penguin - Man Made Object (2016) {Blue Note}


Thanks to the original ripper