Tags
Language
Tags

Reinhard Goebel, Trevor Pinnock, Karl Richter - C.P.E. Bach: Symphonies & Concertos [6CDs] (2014)

Posted By: ArlegZ
Reinhard Goebel, Trevor Pinnock, Karl Richter - C.P.E. Bach: Symphonies & Concertos [6CDs] (2014)

Reinhard Goebel, Trevor Pinnock, Karl Richter - C.P.E. Bach: Symphonies & Concertos [6CDs] (2014)
EAC | FLAC | Image (Cue & Log) ~ 1,49 Gb | Total time: 05:20:37 | Scans included
Classical | Label: Archiv Produktion | # 0289 479 2499 9 | Recorded: 1969-1986

C.P.E. Bach eclipsed his legendary father s fame to become the mid-18th century s leading German composer. This wide-ranging collection of symphonies, concertos and vocal works by the great forerunner of Haydn and Mozart is performed by authoritative interpreters including Trevor Pinnock and The English Concert. The evident delight of the musicians in this music makes for rewarding listening … Impressive and fascinating.
–International Record Review

Performer:
CD1: C.P.E. Bach: String Symphonies Wq 182 Nos. 1 - 6
The English Concert
Trevor Pinnock, harpsichord & director
CD 2: C.P.E. Bach: 4 Orchestral Symphonies Wq 183 Nos. 1 - 4
Hedwig Bilgram, harpsichord
Münchener Bach-Orchester
Karl Richter, conductor
CD 3: C.P.E. Bach: Concerto for 2 Claviers & Orchestra / W.F. Bach: Sonata for 2 Harpsichords; Concerto for 2 Harpsichords & Orchestra
Andreas Staier & Robert Hill, harpsichord
Musica Antiqua Köln
Reinhard Goebel, conductor
CD 4: C.P.E. Bach: Flute Concertos Wq 166 & 167
Stephen Preston, transverse flute
The English Concert
Trevor Pinnock, harpsichord & director
CD 5: C.P.E. Bach: 3 Flute Quartets; Fantasy In C
Nicholas McGegan, flute
Catherine Mackintosh, viola
Anthony Pleeth, cello
Christopher Hogwood, fortepiano
CD 6: C.P.E. Bach: Odes, Psalms And Lieder
Dietrich Fischer-Dieskau, baritone
Jörg Demus, tangent piano
Colin Tilney, clavichord

Track List:
CD 1: C.P.E. Bach: String Symphonies Wq 182 Nos. 1 - 6
Sinfonia in G, Wq 182 No.1
01.1. Allegro di molto
02.2. Poco adagio
03.3. Presto
Sinfonia in B flat, Wq 182 No.2
04.1. Allegro di molto
05.2. Poco adagio
06.3. Presto
Sinfonia in C, Wq 182 No.3
07.1. Allegro assai
08.2. Adagio
09.3. Allegretto
Sinfonia in A, Wq 182 No.4
10.1. Allegro ma non troppo
11.2. Largo ma inocentemente
12.3. Allegro assai
Sinfonia in B minor Wq 182 No.5
13.1. Allegretto
14.2. Larghetto
15.3. Presto
Sinfonia in E major Wq 182 No.6
16.1. Allegro di molto
17.2. Poco andante
18.3. Allegro spiritoso
The English Concert, Trevor Pinnock

CD 2: C.P.E. Bach: 4 Orchestral Symphonies Wq 183 Nos. 1 - 4
Sinfonia in D, Wq 183 No.1
01.1. Allegro di molto
02.2. Largo
03.3. Presto
Sinfonia in E flat, Wq 183 No.2
04.1. Allegro di molto
05.2. Larghetto
06.3. Allegretto
Sinfonia in F, Wq 183 No.3
07.1. Allegro di molto
08.2. Larghetto
09.3. Presto
Sinfonia in G, Wq 183 No.4
10.1. Allegro assai
11.2. Poco andante
12.3. Presto
Münchener Bach-Orchester, Karl Richter

CD 3: C.P.E. Bach: Concerto For Two Claviers And Orchestra / W.F. Bach: Sonata For 2 Harpsichords; Concerto For 2 Harpsichords And Orchestra
Carl Philipp Emanuel Bach (1714 - 1788)
Concerto for Two Claviers and Orchestra, Wq. 46
01.1. Allegro spirituoso
02.2. Largo e con sordino
03.3. Allegro assai
Wilhelm Friedemann Bach (1710 - 1784)
Sonata for 2 Harpsichords in F, Falck 10 - BWV Anh.188
04.1. (Allegro moderato)
05.2. Andante
06.3. Presto
Concerto for 2 Harpsichords and Orchestra in E flat, Falck 46
07.1. Un poco allegro
08.2. Cantabile senza accompagnamento
09.3. Vivace
Andreas Staier, Robert Hill, Musica Antiqua Köln, Reinhard Goebel

CD 4: C.P.E. Bach: Flute Concertos Wq 166 & 167
Flute Concerto in A minor, Wq 166
01.1. Allegro assai
02.2. Andante
03.3. Allegro assai
Flute Concerto in B flat, Wq 167
04.1. Allegro
05.2. Adagio
06.3. Allegro assai
Stephen Preston, The English Concert, Trevor Pinnock

CD 5: C.P.E. Bach: 3 Flute Quartets; Fantasy In C
Flute Quartet in A minor, Wq 93
01.1. Andantino
02.2. Largo e sostenuto
03.3. Allegro assai
Flute Quartet in D, Wq 94
04.1. Allegretto
05.2. Adagio
06.3. Allegro di molto
07.Fantasy in C major (No Wq number)
Flute Quartet in G, Wq 95
08.1. Allegretto
09.2. Adagio
10.3. Presto
Nicholas McGegan, Catherine Mackintosh, Anthony Pleeth, Christopher Hogwood

CD 6: C.P.E. Bach: Odes, Psalms And Lieder
01.Über die Finsternis kurz vor dem Tode Jesu, Wq 197
02.Der Frühling, Wq 197
03.Prüfung am Abend, Wq 194
04.Morgengesang, Wq 194
05.Bitten, Wq 194
06.Trost der Erlösung, Wq 194
Dietrich Fischer-Dieskau, Jörg Demus
07.Fantasie in C minor from Wq 254 ("Probestuecke")
Colin Tilney
08.Passionslied, Wq 194
09.Die Güte Gottes, Wq 194
10.Abendlied, Wq 194
11.Wider den Übermut, Wq 194
12.Demut, Wq 194
Dietrich Fischer-Dieskau, Jörg Demus
13.Fantasie in C major, Wq 61
Colin Tilney
14.Der 19. Psalm, Wq 196
15.Der 130. Psalm, Wq 196
16.Weihnachtslied, Wq 197
17.Jesus in Gethsemane, Wq 198
18.Der Tag des Weltgerichts, Wq 197
19.Der 148. Psalm, Wq 196
Dietrich Fischer-Dieskau, Jörg Demus



Exact Audio Copy V1.3 from 2. September 2016

EAC extraction logfile from 13. October 2018, 14:16

The English Concert, Trevor Pinnock / [Vol 01] - The symphonies for strings - Wq 182

Used drive : MATSHITADVD-RAM UJ8G6 Adapter: 1 ID: 0

Read mode : Secure
Utilize accurate stream : Yes
Defeat audio cache : Yes
Make use of C2 pointers : No

Read offset correction : 103
Overread into Lead-In and Lead-Out : No
Fill up missing offset samples with silence : Yes
Delete leading and trailing silent blocks : No
Null samples used in CRC calculations : Yes
Used interface : Native Win32 interface for Win NT & 2000

Used output format : User Defined Encoder
Selected bitrate : 1024 kBit/s
Quality : High
Add ID3 tag : No
Command line compressor : C:\Program Files (x86)\Exact Audio Copy\FLAC\FLAC.EXE
Additional command line options : -6 -V -T "ARTIST=%artist%" -T "TITLE=%title%" -T "ALBUM=%albumtitle%" -T "DATE=%year%" -T "TRACKNUMBER=%tracknr%" -T "GENRE=%genre%" -T "COMMENT=%comment%" -T "BAND=%albuminterpret%" -T "ALBUMARTIST=%albuminterpret%" -T "COMPOSER=%composer%" %haslyrics%–tag-from-file=LYRICS="%lyricsfile%"%haslyrics% -T "DISCNUMBER=%cdnumber%" -T "TOTALDISCS=%totalcds%" -T "TOTALTRACKS=%numtracks%" %hascover%–picture="%coverfile%"%hascover% %source% -o %dest%


TOC of the extracted CD

Track | Start | Length | Start sector | End sector
––––––––––––––––––––––––––––-
1 | 0:00.33 | 3:41.47 | 33 | 16654
2 | 3:42.05 | 4:02.38 | 16655 | 34842
3 | 7:44.43 | 3:54.37 | 34843 | 52429
4 | 11:39.05 | 3:20.43 | 52430 | 67472
5 | 14:59.48 | 3:37.32 | 67473 | 83779
6 | 18:37.05 | 5:09.20 | 83780 | 106974
7 | 23:46.25 | 2:41.68 | 106975 | 119117
8 | 26:28.18 | 3:17.35 | 119118 | 133927
9 | 29:45.53 | 3:43.05 | 133928 | 150657
10 | 33:28.58 | 4:23.10 | 150658 | 170392
11 | 37:51.68 | 3:28.25 | 170393 | 186017
12 | 41:20.18 | 4:07.02 | 186018 | 204544
13 | 45:27.20 | 4:16.18 | 204545 | 223762
14 | 49:43.38 | 2:37.52 | 223763 | 235589
15 | 52:21.15 | 3:53.65 | 235590 | 253129
16 | 56:15.05 | 2:24.43 | 253130 | 263972
17 | 58:39.48 | 3:08.37 | 263973 | 278109
18 | 61:48.10 | 3:10.10 | 278110 | 292369


Range status and errors

Selected range

Filename F:\Attente UP\The English Concert, Trevor Pinnock - [Vol 01] - The symphonies for strings - Wq 182.wav

Peak level 85.0 %
Extraction speed 2.6 X
Range quality 99.9 %
Test CRC 287CFDF6
Copy CRC 287CFDF6
Copy OK

No errors occurred


AccurateRip summary

Track 1 accurately ripped (confidence 7) [7278D031] (AR v2)
Track 2 accurately ripped (confidence 8) [9E3B5E9B] (AR v2)
Track 3 accurately ripped (confidence 8) [2495B5E7] (AR v2)
Track 4 accurately ripped (confidence 8) [A588FE4F] (AR v2)
Track 5 accurately ripped (confidence 8) [405DDFC5] (AR v2)
Track 6 accurately ripped (confidence 8) [12A63A80] (AR v2)
Track 7 accurately ripped (confidence 8) [6773A96C] (AR v2)
Track 8 accurately ripped (confidence 8) [90C2F203] (AR v2)
Track 9 accurately ripped (confidence 8) [B839CCB7] (AR v2)
Track 10 accurately ripped (confidence 8) [F073A1F2] (AR v2)
Track 11 accurately ripped (confidence 8) [292D4E74] (AR v2)
Track 12 accurately ripped (confidence 8) [1377D262] (AR v2)
Track 13 accurately ripped (confidence 8) [E8EA2479] (AR v2)
Track 14 accurately ripped (confidence 8) [4B257351] (AR v2)
Track 15 accurately ripped (confidence 8) [2E5F8744] (AR v2)
Track 16 accurately ripped (confidence 8) [AC51A6E1] (AR v2)
Track 17 accurately ripped (confidence 8) [0078AE0C] (AR v2)
Track 18 accurately ripped (confidence 8) [CB0775B1] (AR v2)

All tracks accurately ripped

End of status report

–– CUETools DB Plugin V2.1.6

[CTDB TOCID: dmM..vWXuUTwXj4sF4Oh2loLcpQ-] found
Submit result: dmM..vWXuUTwXj4sF4Oh2loLcpQ- has been confirmed
Track | CTDB Status
1 | (9/9) Accurately ripped
2 | (9/9) Accurately ripped
3 | (9/9) Accurately ripped
4 | (9/9) Accurately ripped
5 | (9/9) Accurately ripped
6 | (9/9) Accurately ripped
7 | (9/9) Accurately ripped
8 | (9/9) Accurately ripped
9 | (9/9) Accurately ripped
10 | (9/9) Accurately ripped
11 | (9/9) Accurately ripped
12 | (9/9) Accurately ripped
13 | (9/9) Accurately ripped
14 | (9/9) Accurately ripped
15 | (9/9) Accurately ripped
16 | (9/9) Accurately ripped
17 | (9/9) Accurately ripped
18 | (9/9) Accurately ripped


==== Log checksum 101131DECFC06309CC3F6EA8F8211BEE43AD056D23A8744DCD21AD0333E9084B ====


Exact Audio Copy V1.3 from 2. September 2016

EAC extraction logfile from 13. October 2018, 14:55

Munchener Bach-Orchester, Karl Richter / [Vol 02] - Vier Orchester-Sinfonien Wq 183 nos. 1-4

Used drive : MATSHITADVD-RAM UJ8G6 Adapter: 1 ID: 0

Read mode : Secure
Utilize accurate stream : Yes
Defeat audio cache : Yes
Make use of C2 pointers : No

Read offset correction : 103
Overread into Lead-In and Lead-Out : No
Fill up missing offset samples with silence : Yes
Delete leading and trailing silent blocks : No
Null samples used in CRC calculations : Yes
Used interface : Native Win32 interface for Win NT & 2000

Used output format : User Defined Encoder
Selected bitrate : 1024 kBit/s
Quality : High
Add ID3 tag : No
Command line compressor : C:\Program Files (x86)\Exact Audio Copy\FLAC\FLAC.EXE
Additional command line options : -6 -V -T "ARTIST=%artist%" -T "TITLE=%title%" -T "ALBUM=%albumtitle%" -T "DATE=%year%" -T "TRACKNUMBER=%tracknr%" -T "GENRE=%genre%" -T "COMMENT=%comment%" -T "BAND=%albuminterpret%" -T "ALBUMARTIST=%albuminterpret%" -T "COMPOSER=%composer%" %haslyrics%–tag-from-file=LYRICS="%lyricsfile%"%haslyrics% -T "DISCNUMBER=%cdnumber%" -T "TOTALDISCS=%totalcds%" -T "TOTALTRACKS=%numtracks%" %hascover%–picture="%coverfile%"%hascover% %source% -o %dest%


TOC of the extracted CD

Track | Start | Length | Start sector | End sector
––––––––––––––––––––––––––––-
1 | 0:00.00 | 5:47.54 | 0 | 26078
2 | 5:47.54 | 1:30.13 | 26079 | 32841
3 | 7:17.67 | 2:47.31 | 32842 | 45397
4 | 10:05.23 | 3:25.72 | 45398 | 60844
5 | 13:31.20 | 1:09.02 | 60845 | 66021
6 | 14:40.22 | 4:44.17 | 66022 | 87338
7 | 19:24.39 | 4:20.30 | 87339 | 106868
8 | 23:44.69 | 2:22.35 | 106869 | 117553
9 | 26:07.29 | 3:05.51 | 117554 | 131479
10 | 29:13.05 | 2:54.39 | 131480 | 144568
11 | 32:07.44 | 3:23.69 | 144569 | 159862
12 | 35:31.38 | 3:26.02 | 159863 | 175314


Range status and errors

Selected range

Filename F:\Attente UP\Munchener Bach-Orchester, Karl Richter - [Vol 02] - Vier Orchester-Sinfonien Wq 183 nos. 1-4.wav

Peak level 98.9 %
Extraction speed 2.3 X
Range quality 100.0 %
Test CRC 6328151E
Copy CRC 6328151E
Copy OK

No errors occurred


AccurateRip summary

Track 1 accurately ripped (confidence 88) [29F0F0F3] (AR v2)
Track 2 accurately ripped (confidence 88) [9241C27A] (AR v2)
Track 3 accurately ripped (confidence 87) [2381D97A] (AR v2)
Track 4 accurately ripped (confidence 88) [94EB48D3] (AR v2)
Track 5 accurately ripped (confidence 88) [6399D6AE] (AR v2)
Track 6 accurately ripped (confidence 85) [A513DE44] (AR v2)
Track 7 accurately ripped (confidence 88) [52024BA9] (AR v2)
Track 8 accurately ripped (confidence 88) [C3D038B4] (AR v2)
Track 9 accurately ripped (confidence 87) [3E5D8AF3] (AR v2)
Track 10 accurately ripped (confidence 88) [2413E970] (AR v2)
Track 11 accurately ripped (confidence 88) [9E3EF00F] (AR v2)
Track 12 accurately ripped (confidence 88) [A3A3C451] (AR v2)

All tracks accurately ripped

End of status report

–– CUETools DB Plugin V2.1.6

[CTDB TOCID: fKOrSAy7H6XI3AWyrfUP9kFr1I0-] found
Submit result: fKOrSAy7H6XI3AWyrfUP9kFr1I0- has been confirmed
Track | CTDB Status
1 | (133/133) Accurately ripped
2 | (133/133) Accurately ripped
3 | (133/133) Accurately ripped
4 | (133/133) Accurately ripped
5 | (133/133) Accurately ripped
6 | (133/133) Accurately ripped
7 | (133/133) Accurately ripped
8 | (133/133) Accurately ripped
9 | (133/133) Accurately ripped
10 | (133/133) Accurately ripped
11 | (133/133) Accurately ripped
12 | (133/133) Accurately ripped


==== Log checksum DDF66E85FF8F42E58ADB803AFF6E4DBE04E1245F92D19F2099CBA216658CA1B8 ====


Exact Audio Copy V1.3 from 2. September 2016

EAC extraction logfile from 13. October 2018, 20:22

Musica Antiqua Köln, Reinhard Goebel, & Andreas Staier, Robert Hill / [Vol 03] - Concerto for 2 Cembal

Used drive : MATSHITADVD-RAM UJ8G6 Adapter: 1 ID: 0

Read mode : Secure
Utilize accurate stream : Yes
Defeat audio cache : Yes
Make use of C2 pointers : No

Read offset correction : 103
Overread into Lead-In and Lead-Out : No
Fill up missing offset samples with silence : Yes
Delete leading and trailing silent blocks : No
Null samples used in CRC calculations : Yes
Used interface : Native Win32 interface for Win NT & 2000

Used output format : User Defined Encoder
Selected bitrate : 1024 kBit/s
Quality : High
Add ID3 tag : No
Command line compressor : C:\Program Files (x86)\Exact Audio Copy\FLAC\FLAC.EXE
Additional command line options : -6 -V -T "ARTIST=%artist%" -T "TITLE=%title%" -T "ALBUM=%albumtitle%" -T "DATE=%year%" -T "TRACKNUMBER=%tracknr%" -T "GENRE=%genre%" -T "COMMENT=%comment%" -T "BAND=%albuminterpret%" -T "ALBUMARTIST=%albuminterpret%" -T "COMPOSER=%composer%" %haslyrics%–tag-from-file=LYRICS="%lyricsfile%"%haslyrics% -T "DISCNUMBER=%cdnumber%" -T "TOTALDISCS=%totalcds%" -T "TOTALTRACKS=%numtracks%" %hascover%–picture="%coverfile%"%hascover% %source% -o %dest%


TOC of the extracted CD

Track | Start | Length | Start sector | End sector
––––––––––––––––––––––––––––-
1 | 0:00.33 | 8:58.37 | 33 | 40419
2 | 8:58.70 | 10:06.25 | 40420 | 85894
3 | 19:05.20 | 4:40.63 | 85895 | 106957
4 | 23:46.08 | 6:04.25 | 106958 | 134282
5 | 29:50.33 | 5:35.07 | 134283 | 159414
6 | 35:25.40 | 3:58.65 | 159415 | 177329
7 | 39:24.30 | 10:40.40 | 177330 | 225369
8 | 50:04.70 | 3:20.35 | 225370 | 240404
9 | 53:25.30 | 6:43.53 | 240405 | 270682


Range status and errors

Selected range

Filename F:\Attente UP\Musica Antiqua Köln, Reinhard Goebel, & Andreas Staier, Robert Hill - [Vol 03] - Concerto for 2 Cembal.wav

Peak level 76.6 %
Extraction speed 2.6 X
Range quality 100.0 %
Test CRC 4C01FB2A
Copy CRC 4C01FB2A
Copy OK

No errors occurred


AccurateRip summary

Track 1 accurately ripped (confidence 4) [430878AE] (AR v2)
Track 2 accurately ripped (confidence 4) [9EA0CE0D] (AR v2)
Track 3 accurately ripped (confidence 4) [C41F6B33] (AR v2)
Track 4 accurately ripped (confidence 4) [EF739497] (AR v2)
Track 5 accurately ripped (confidence 4) [C7434CDD] (AR v2)
Track 6 accurately ripped (confidence 4) [CAD30746] (AR v2)
Track 7 accurately ripped (confidence 4) [D0E79C83] (AR v2)
Track 8 accurately ripped (confidence 4) [F761497C] (AR v2)
Track 9 accurately ripped (confidence 4) [DE36D6D8] (AR v2)

All tracks accurately ripped

End of status report

–– CUETools DB Plugin V2.1.6

[CTDB TOCID: xQ.BofY6zM9WBHlYOY.mvf5ssp4-] found
Submit result: xQ.BofY6zM9WBHlYOY.mvf5ssp4- has been confirmed
Track | CTDB Status
1 | (37/39) Accurately ripped
2 | (37/39) Accurately ripped
3 | (37/39) Accurately ripped
4 | (37/39) Accurately ripped
5 | (37/39) Accurately ripped
6 | (37/39) Accurately ripped
7 | (37/39) Accurately ripped
8 | (37/39) Accurately ripped
9 | (37/39) Accurately ripped


==== Log checksum 753BFEBA2428BB5C54F4B01FDD35D04B21EE5081AAB79ED53930FB533D563941 ====


Exact Audio Copy V1.3 from 2. September 2016

EAC extraction logfile from 13. October 2018, 21:08

The English Concert, Trevor Pinnock & Stephen Preston / [Vol 04] - 2 Flute & String Concertos

Used drive : MATSHITADVD-RAM UJ8G6 Adapter: 1 ID: 0

Read mode : Secure
Utilize accurate stream : Yes
Defeat audio cache : Yes
Make use of C2 pointers : No

Read offset correction : 103
Overread into Lead-In and Lead-Out : No
Fill up missing offset samples with silence : Yes
Delete leading and trailing silent blocks : No
Null samples used in CRC calculations : Yes
Used interface : Native Win32 interface for Win NT & 2000

Used output format : User Defined Encoder
Selected bitrate : 1024 kBit/s
Quality : High
Add ID3 tag : No
Command line compressor : C:\Program Files (x86)\Exact Audio Copy\FLAC\FLAC.EXE
Additional command line options : -6 -V -T "ARTIST=%artist%" -T "TITLE=%title%" -T "ALBUM=%albumtitle%" -T "DATE=%year%" -T "TRACKNUMBER=%tracknr%" -T "GENRE=%genre%" -T "COMMENT=%comment%" -T "BAND=%albuminterpret%" -T "ALBUMARTIST=%albuminterpret%" -T "COMPOSER=%composer%" %haslyrics%–tag-from-file=LYRICS="%lyricsfile%"%haslyrics% -T "DISCNUMBER=%cdnumber%" -T "TOTALDISCS=%totalcds%" -T "TOTALTRACKS=%numtracks%" %hascover%–picture="%coverfile%"%hascover% %source% -o %dest%


TOC of the extracted CD

Track | Start | Length | Start sector | End sector
––––––––––––––––––––––––––––-
1 | 0:00.33 | 9:44.25 | 33 | 43857
2 | 9:44.58 | 9:20.07 | 43858 | 85864
3 | 19:04.65 | 6:54.08 | 85865 | 116922
4 | 25:58.73 | 9:14.37 | 116923 | 158509
5 | 35:13.35 | 8:28.25 | 158510 | 196634
6 | 43:41.60 | 6:02.48 | 196635 | 223832


Range status and errors

Selected range

Filename F:\Attente UP\The English Concert, Trevor Pinnock & Stephen Preston - [Vol 04] - 2 Flute & String Concertos.wav

Peak level 84.6 %
Extraction speed 2.5 X
Range quality 100.0 %
Test CRC 77A73F30
Copy CRC 77A73F30
Copy OK

No errors occurred


AccurateRip summary

Track 1 accurately ripped (confidence 4) [3E67509C] (AR v2)
Track 2 accurately ripped (confidence 4) [A92D771A] (AR v2)
Track 3 accurately ripped (confidence 4) [50182D55] (AR v2)
Track 4 accurately ripped (confidence 4) [1DB67EDC] (AR v2)
Track 5 accurately ripped (confidence 4) [1A94F4D1] (AR v2)
Track 6 accurately ripped (confidence 4) [C4408E14] (AR v2)

All tracks accurately ripped

End of status report

–– CUETools DB Plugin V2.1.6

[CTDB TOCID: mcwxJA_bKI5vHG7ZPcuH1IjJiPo-] database access error: Le nom distant n'a pas pu être résolu: 'db.cuetools.net'


==== Log checksum C86A010F134FB4F657D7B586D5588E9F63CAF1E57E4E607589653CBA84F5A2B2 ====


Exact Audio Copy V1.3 from 2. September 2016

EAC extraction logfile from 13. October 2018, 23:45

Christopher Hogwood & al. / [Vol 05] - 3 Quartets (Wq 93-95) & Fantasy in C major

Used drive : MATSHITADVD-RAM UJ8G6 Adapter: 1 ID: 0

Read mode : Secure
Utilize accurate stream : Yes
Defeat audio cache : Yes
Make use of C2 pointers : No

Read offset correction : 103
Overread into Lead-In and Lead-Out : No
Fill up missing offset samples with silence : Yes
Delete leading and trailing silent blocks : No
Null samples used in CRC calculations : Yes
Used interface : Native Win32 interface for Win NT & 2000

Used output format : User Defined Encoder
Selected bitrate : 1024 kBit/s
Quality : High
Add ID3 tag : No
Command line compressor : C:\Program Files (x86)\Exact Audio Copy\FLAC\FLAC.EXE
Additional command line options : -6 -V -T "ARTIST=%artist%" -T "TITLE=%title%" -T "ALBUM=%albumtitle%" -T "DATE=%year%" -T "TRACKNUMBER=%tracknr%" -T "GENRE=%genre%" -T "COMMENT=%comment%" -T "BAND=%albuminterpret%" -T "ALBUMARTIST=%albuminterpret%" -T "COMPOSER=%composer%" %haslyrics%–tag-from-file=LYRICS="%lyricsfile%"%haslyrics% -T "DISCNUMBER=%cdnumber%" -T "TOTALDISCS=%totalcds%" -T "TOTALTRACKS=%numtracks%" %hascover%–picture="%coverfile%"%hascover% %source% -o %dest%


TOC of the extracted CD

Track | Start | Length | Start sector | End sector
––––––––––––––––––––––––––––-
1 | 0:00.33 | 5:48.25 | 33 | 26157
2 | 5:48.58 | 4:42.12 | 26158 | 47319
3 | 10:30.70 | 4:10.00 | 47320 | 66069
4 | 14:40.70 | 4:52.50 | 66070 | 88019
5 | 19:33.45 | 3:51.13 | 88020 | 105357
6 | 23:24.58 | 5:07.37 | 105358 | 128419
7 | 28:32.20 | 7:35.25 | 128420 | 162569
8 | 36:07.45 | 7:17.13 | 162570 | 195357
9 | 43:24.58 | 3:50.37 | 195358 | 212644
10 | 47:15.20 | 5:29.50 | 212645 | 237369


Range status and errors

Selected range

Filename F:\Attente UP\Christopher Hogwood & al. - [Vol 05] - 3 Quartets (Wq 93-95) & Fantasy in C major.wav

Peak level 93.0 %
Extraction speed 2.5 X
Range quality 99.9 %
Test CRC 34711936
Copy CRC 34711936
Copy OK

No errors occurred


AccurateRip summary

Track 1 accurately ripped (confidence 4) [E33051A6] (AR v2)
Track 2 accurately ripped (confidence 4) [910D0FDD] (AR v2)
Track 3 accurately ripped (confidence 4) [E55C0933] (AR v2)
Track 4 accurately ripped (confidence 4) [4F2E3B12] (AR v2)
Track 5 accurately ripped (confidence 4) [A0DD2F40] (AR v2)
Track 6 accurately ripped (confidence 4) [FA5E95E0] (AR v2)
Track 7 accurately ripped (confidence 4) [EFBB0030] (AR v2)
Track 8 accurately ripped (confidence 4) [8E0130A2] (AR v2)
Track 9 accurately ripped (confidence 4) [28CCF233] (AR v2)
Track 10 accurately ripped (confidence 4) [109063C5] (AR v2)

All tracks accurately ripped

End of status report

–– CUETools DB Plugin V2.1.6

[CTDB TOCID: Gjv7NC8xT7yz7lHO_aydjDQlhOE-] found
Submit result: Gjv7NC8xT7yz7lHO_aydjDQlhOE- has been confirmed
Track | CTDB Status
1 | ( 7/13) Accurately ripped
2 | ( 8/13) Accurately ripped
3 | ( 8/13) Accurately ripped
4 | ( 8/13) Accurately ripped
5 | ( 8/13) Accurately ripped
6 | ( 7/13) Accurately ripped
7 | ( 8/13) Accurately ripped
8 | ( 8/13) Accurately ripped
9 | ( 8/13) Accurately ripped
10 | ( 8/13) Accurately ripped


==== Log checksum A7780FEA31BDC44F69E3D7DC0B84025D9141E6F571D34C5CB74B23124C811B92 ====


Exact Audio Copy V1.3 from 2. September 2016

EAC extraction logfile from 14. October 2018, 0:24

Colin Tilney & al. / [Vol 06] - Odes, Pasalms & Lieder

Used drive : MATSHITADVD-RAM UJ8G6 Adapter: 1 ID: 0

Read mode : Secure
Utilize accurate stream : Yes
Defeat audio cache : Yes
Make use of C2 pointers : No

Read offset correction : 103
Overread into Lead-In and Lead-Out : No
Fill up missing offset samples with silence : Yes
Delete leading and trailing silent blocks : No
Null samples used in CRC calculations : Yes
Used interface : Native Win32 interface for Win NT & 2000

Used output format : User Defined Encoder
Selected bitrate : 1024 kBit/s
Quality : High
Add ID3 tag : No
Command line compressor : C:\Program Files (x86)\Exact Audio Copy\FLAC\FLAC.EXE
Additional command line options : -6 -V -T "ARTIST=%artist%" -T "TITLE=%title%" -T "ALBUM=%albumtitle%" -T "DATE=%year%" -T "TRACKNUMBER=%tracknr%" -T "GENRE=%genre%" -T "COMMENT=%comment%" -T "BAND=%albuminterpret%" -T "ALBUMARTIST=%albuminterpret%" -T "COMPOSER=%composer%" %haslyrics%–tag-from-file=LYRICS="%lyricsfile%"%haslyrics% -T "DISCNUMBER=%cdnumber%" -T "TOTALDISCS=%totalcds%" -T "TOTALTRACKS=%numtracks%" %hascover%–picture="%coverfile%"%hascover% %source% -o %dest%


TOC of the extracted CD

Track | Start | Length | Start sector | End sector
––––––––––––––––––––––––––––-
1 | 0:00.33 | 2:14.00 | 33 | 10082
2 | 2:14.33 | 1:44.00 | 10083 | 17882
3 | 3:58.33 | 4:06.00 | 17883 | 36332
4 | 8:04.33 | 1:56.00 | 36333 | 45032
5 | 10:00.33 | 1:27.00 | 45033 | 51557
6 | 11:27.33 | 1:43.00 | 51558 | 59282
7 | 13:10.33 | 5:51.00 | 59283 | 85607
8 | 19:01.33 | 5:36.00 | 85608 | 110807
9 | 24:37.33 | 2:03.00 | 110808 | 120032
10 | 26:40.33 | 2:12.00 | 120033 | 129932
11 | 28:52.33 | 3:50.00 | 129933 | 147182
12 | 32:42.33 | 2:22.00 | 147183 | 157832
13 | 35:04.33 | 6:21.00 | 157833 | 186407
14 | 41:25.33 | 2:04.00 | 186408 | 195707
15 | 43:29.33 | 2:28.00 | 195708 | 206807
16 | 45:57.33 | 2:26.00 | 206808 | 217757
17 | 48:23.33 | 3:26.00 | 217758 | 233207
18 | 51:49.33 | 2:19.00 | 233208 | 243632
19 | 54:08.33 | 0:52.00 | 243633 | 247532


Range status and errors

Selected range

Filename F:\Attente UP\Colin Tilney & al. - [Vol 06] - Odes, Pasalms & Lieder.wav

Peak level 78.3 %
Extraction speed 4.1 X
Range quality 99.9 %
Test CRC ED7E829E
Copy CRC ED7E829E
Copy OK

No errors occurred


AccurateRip summary

Track 1 accurately ripped (confidence 3) [98271AC1] (AR v2)
Track 2 accurately ripped (confidence 4) [B48F6AF0] (AR v2)
Track 3 accurately ripped (confidence 4) [0CCA7FA0] (AR v2)
Track 4 accurately ripped (confidence 4) [E636506A] (AR v2)
Track 5 accurately ripped (confidence 4) [BF478B07] (AR v2)
Track 6 accurately ripped (confidence 4) [5782818B] (AR v2)
Track 7 accurately ripped (confidence 4) [5A1F1C40] (AR v2)
Track 8 accurately ripped (confidence 4) [1B728B43] (AR v2)
Track 9 accurately ripped (confidence 4) [F0953105] (AR v2)
Track 10 accurately ripped (confidence 4) [445C0A03] (AR v2)
Track 11 accurately ripped (confidence 4) [9DA54763] (AR v2)
Track 12 accurately ripped (confidence 4) [6A8EB02B] (AR v2)
Track 13 accurately ripped (confidence 4) [DD75A691] (AR v2)
Track 14 accurately ripped (confidence 4) [9BF4860B] (AR v2)
Track 15 accurately ripped (confidence 4) [4EF22C55] (AR v2)
Track 16 accurately ripped (confidence 4) [64CA7E52] (AR v2)
Track 17 accurately ripped (confidence 4) [5B9BA686] (AR v2)
Track 18 accurately ripped (confidence 4) [17D67DB0] (AR v2)
Track 19 accurately ripped (confidence 4) [8FA6D58E] (AR v2)

All tracks accurately ripped

End of status report

–– CUETools DB Plugin V2.1.6

[CTDB TOCID: PHDR5b640uVl0YacntTjaVHyjOQ-] found
Submit result: PHDR5b640uVl0YacntTjaVHyjOQ- has been confirmed
Track | CTDB Status
1 | (6/6) Accurately ripped
2 | (6/6) Accurately ripped
3 | (6/6) Accurately ripped
4 | (6/6) Accurately ripped
5 | (6/6) Accurately ripped
6 | (6/6) Accurately ripped
7 | (6/6) Accurately ripped
8 | (6/6) Accurately ripped
9 | (6/6) Accurately ripped
10 | (6/6) Accurately ripped
11 | (6/6) Accurately ripped
12 | (6/6) Accurately ripped
13 | (6/6) Accurately ripped
14 | (6/6) Accurately ripped
15 | (6/6) Accurately ripped
16 | (6/6) Accurately ripped
17 | (6/6) Accurately ripped
18 | (6/6) Accurately ripped
19 | (6/6) Accurately ripped


==== Log checksum FD9276AAEC070D434DA482F8A87C86A40F02CEBBC6CBEF1C617CC4D7A9FE405C ====


Reinhard Goebel, Trevor Pinnock, Karl Richter - C.P.E. Bach: Symphonies & Concertos [6CDs] (2014)

Thanks to the original releaser