Subcategories

Gordon Goodwin's Big Phat Band - Life In The Bubble (2014) {Telarc}

Posted By: tiburon
Gordon Goodwin's Big Phat Band - Life In The Bubble (2014) {Telarc}

Gordon Goodwin's Big Phat Band - Life In The Bubble (2014) {Telarc}
EAC 1.0b3 | FLAC tracks level 8 | Cue+Log+M3U | Full Scans 600dpi | 421MB + 5% Recovery
Genre: Post-Bop, Modern Big Band

The preeminent Grammy-winning big band leader, Gordon Goodwin, and his Big Phat Band return with another dose of impeccable arrangements and big band fun on this new release. The album features this year s Grammy-winning On Green Dolphin Street arrangement, his own take on the Get Smart theme and more!
Track List
01. Life In The Bubble 6:47
02. Why We Can't Have Nice Things 6:20
03. Synolicks 8:16
04. Years Of Therapy 8:22
05. The Passage 6:47
06. Garaje Gato 6:51
07. Does This Chart Make Me Look Phat? 8:21
08. Get Smart 4:28
09. On Green Dolphin Street 3:37
10. Party Rockers 3:57

musicians
Gordon Goodwin - piano, tenor saxophone

saxophones:
Eric Marienthal - soprano, alto
Sal Lozano - alto, flute, piccolo
Brian Scanlon - tenor, clarinet
Jeff Driskill - tenor on tr. 1, 2, 5, 7-9
Kevin Garren - tenor on tr. 3, 4, 6, alto on tr. 2
Jay Mason - baritone, bass clarinet

trumpets:
Wayne Bergeron
Dan Fornero
Willie Murillo
Dan Savant
Bob Summers on tr. 9

trombones:
Andy Martin
Charlie Morillas
Francisco Torres
Craig Gosnell
Andrew Synowiec - guitar
Rick Shaw - acoustic & electric bass
Bernie Dresel - drums
Joey DeLeon - percussion
Special Guest Vocalist:
Judith Hill on tr. 10

Produced by Gregg Field


Exact Audio Copy V1.0 beta 3 from 29. August 2011

EAC extraction logfile from 14. June 2014, 4:45

Gordon Goodwin's Big Phat Band / Life in the Bubble

Used drive : HL-DT-STDVD-RAM GSA-H55N Adapter: 0 ID: 1

Read mode : Secure
Utilize accurate stream : Yes
Defeat audio cache : Yes
Make use of C2 pointers : No

Read offset correction : 102
Overread into Lead-In and Lead-Out : Yes
Fill up missing offset samples with silence : Yes
Delete leading and trailing silent blocks : No
Null samples used in CRC calculations : Yes
Used interface : Native Win32 interface for Win NT & 2000
Gap handling : Appended to previous track

Used output format : User Defined Encoder
Selected bitrate : 128 kBit/s
Quality : High
Add ID3 tag : No
Command line compressor : G:\Program Files\Exact Audio Copy\Encoder\flac.exe
Additional command line options : -V -8 -T "Genre=%genre%" -T "Artist=%artist%" -T "Title=%title%" -T "Album=%albumtitle%" -T "Date=%year%" -T "Tracknumber=%tracknr%" -T "Comment=EAC1.0b3 FLAC -8" %source%


TOC of the extracted CD

Track | Start | Length | Start sector | End sector
––––––––––––––––––––––––––––-
1 | 0:00.00 | 6:45.33 | 0 | 30407
2 | 6:45.33 | 6:18.03 | 30408 | 58760
3 | 13:03.36 | 8:15.09 | 58761 | 95894
4 | 21:18.45 | 8:21.34 | 95895 | 133503
5 | 29:40.04 | 6:46.24 | 133504 | 163977
6 | 36:26.28 | 6:49.13 | 163978 | 194665
7 | 43:15.41 | 8:21.02 | 194666 | 232242
8 | 51:36.43 | 4:28.71 | 232243 | 252413
9 | 56:05.39 | 3:34.74 | 252414 | 268537
10 | 59:40.38 | 3:56.71 | 268538 | 286308


Track 1

Filename F:\WAV\01 - Life in the Bubble.wav

Pre-gap length 0:00:02.00

Peak level 100.0 %
Extraction speed 1.4 X
Track quality 99.8 %
Test CRC D0F03D93
Copy CRC D0F03D93
Track not present in AccurateRip database
Copy OK

Track 2

Filename F:\WAV\02 - Why We Can't Have Nice Things.wav

Peak level 100.0 %
Extraction speed 2.2 X
Track quality 100.0 %
Test CRC 1EDFBD02
Copy CRC 1EDFBD02
Track not present in AccurateRip database
Copy OK

Track 3

Filename F:\WAV\03 - Synolicks.wav

Peak level 99.3 %
Extraction speed 2.5 X
Track quality 100.0 %
Test CRC 48F111E8
Copy CRC 48F111E8
Track not present in AccurateRip database
Copy OK

Track 4

Filename F:\WAV\04 - Years of Therapy.wav

Peak level 99.9 %
Extraction speed 2.8 X
Track quality 100.0 %
Test CRC EACE8AA3
Copy CRC EACE8AA3
Track not present in AccurateRip database
Copy OK

Track 5

Filename F:\WAV\05 - The Passage.wav

Peak level 99.2 %
Extraction speed 2.7 X
Track quality 99.9 %
Test CRC 5C430901
Copy CRC 5C430901
Track not present in AccurateRip database
Copy OK

Track 6

Filename F:\WAV\06 - Garaje Gato.wav

Peak level 100.0 %
Extraction speed 3.2 X
Track quality 100.0 %
Test CRC B9D2228F
Copy CRC B9D2228F
Track not present in AccurateRip database
Copy OK

Track 7

Filename F:\WAV\07 - Does This Chart Make Me Look Phat.wav

Peak level 99.2 %
Extraction speed 3.4 X
Track quality 100.0 %
Test CRC A5A7DB96
Copy CRC A5A7DB96
Track not present in AccurateRip database
Copy OK

Track 8

Filename F:\WAV\08 - Get Smart.wav

Peak level 100.0 %
Extraction speed 3.3 X
Track quality 100.0 %
Test CRC 586CA83B
Copy CRC 586CA83B
Track not present in AccurateRip database
Copy OK

Track 9

Filename F:\WAV\09 - On Green Dolphin Street.wav

Peak level 100.0 %
Extraction speed 3.3 X
Track quality 100.0 %
Test CRC 0594609A
Copy CRC 0594609A
Track not present in AccurateRip database
Copy OK

Track 10

Filename F:\WAV\10 - Party Rockers.wav

Peak level 99.7 %
Extraction speed 3.9 X
Track quality 100.0 %
Test CRC B5525163
Copy CRC B5525163
Track not present in AccurateRip database
Copy OK


None of the tracks are present in the AccurateRip database

No errors occurred

End of status report

==== Log checksum 446440FF73AC96C4FAE62C6EBFA4C1AFFF2AD1FA6F0DF301492F07CA130A4CFD ====


––––––––––––––––––––––––––––––––––––––––
Analyzed: Gordon Goodwin's Big Phat Band / Life in the Bubble
––––––––––––––––––––––––––––––––––––––––

DR Peak RMS Duration Track
––––––––––––––––––––––––––––––––––––––––
DR10 0.00 dB -13.28 dB 6:45 01-Life in the Bubble
DR10 0.00 dB -11.81 dB 6:18 02-Why We Can't Have Nice Things
DR10 -0.06 dB -12.81 dB 8:15 03-Synolicks
DR10 -0.01 dB -13.30 dB 8:21 04-Years of Therapy
DR11 -0.06 dB -14.31 dB 6:46 05-The Passage
DR11 0.00 dB -13.62 dB 6:49 06-Garaje Gato
DR11 -0.07 dB -14.31 dB 8:21 07-Does This Chart Make Me Look Phat?
DR11 0.00 dB -13.56 dB 4:29 08-Get Smart
DR9 0.00 dB -12.31 dB 3:35 09-On Green Dolphin Street
DR9 -0.02 dB -11.62 dB 3:57 10-Party Rockers
––––––––––––––––––––––––––––––––––––––––

Number of tracks: 10
Official DR value: DR10

Samplerate: 44100 Hz
Channels: 2
Bits per sample: 16
Bitrate: 908 kbps
Codec: FLAC
================================================================================

Gordon Goodwin's Big Phat Band - Life In The Bubble (2014) {Telarc}
Gordon Goodwin's Big Phat Band - Life In The Bubble (2014) {Telarc}
Gordon Goodwin's Big Phat Band - Life In The Bubble (2014) {Telarc}


Rip by simple.i