Subcategories

Grand Magus - Iron Will (2008) (Japan VICP-64178)

Posted By: apocalipsys2014
Grand Magus - Iron Will (2008) (Japan VICP-64178)

Grand Magus - Iron Will (2008)
Year & Label: 2008, Victor Entertainment Inc., Japan | CD#: VICP-64178
Flac (image) | MP3 CBR 320 Kbps | Artwork (JPG, 300 dpi) | File-hosts: FilePost
Heavy/Doom Metal | FLAC: 340 MB | Artwork: 60 MB | MP3: 110 MB | 5% WinRAR Recovery

EAC Secure-rip with LOG+CUE+COVERS | Source: torrents
Japanese 1st Press CD with bonus track

If Grand Magus falls in a forest when no one is around, does it make a sound? Hell yes it does, and you can bet the sonic waves sent from its rhythmic pounding are so unbelievably gigantic that even the smartest person caught in the crossfire of the unrelenting lash of Grand Magus will morph into a thick-headed dummy. Grand Magus plays an extravagant hybrid of heavy/doom metal that is remarkably simple at its core yet dramatically heroic and bold, roiling on in a massive shockwave of bruising riffs and the manly croons of Janne "JB" Christoffersson's sensational vocal chords. "Iron Will" strikes hard and sounds like an excellent testament to classic heavy metal rolled in a pagan tint and finally glazed with an electric sense of enthusiasm and conviction.

While the songs are far from technical or layered in any sense of compositional achievement, they are smoldering with affection the likes of which are seldom reached. Grand Magus is all about delivering a few amazingly crushing riffs that usually cycle around very simple choruses and guitar solos, but their sound is actually original and they really bring a ton of energy to songs that otherwise would look a little banal. The riffs are generally inspiring, and the meaty production makes the whole package a huge mesh of steel courage. I'll fully admit that I may have a bit of a mancrush on Christoffersson's stellar voice, which fits perfectly into the heavy-as-hell firing occurring throughout the whole record. His vocals are deep and powerful, not a far cry from his work in Spiritual Beggars, but still just pure metal sliding off his tongue.

The nine tunes all follow the same structure and seldom deviate from the doom-laden heavy metal blueprint. No complaints here though, because these Swedes knew just what they wanted and absolutely CRUSHED any chance of forging mediocrity. Right from the start, the mountains of pristine gruff take complete control during the gliding “Like the Oar Strikes the Water” and the rocking “Fear is the Key.“ The title track and “Silver Into Steel” are rigorous anthems of epic dominance; both keep the atmosphere fresh and insanely catchy. As I already said, it’s the devotion which runs “Iron Will.“ You can tell Grand Magus were playing their hearts out, and the power literally drips like a drop of molten steel. Talk about the most motivation piece of music ever; you have serious problems if the sheer passion and energy doesn't make you want to conquer every kingdom and government.

I love the simplistic churning of "Self-Deceiver" and I love the upbeat chorus chugging through "The Shadow Knows." I love the unrelenting bashing of "Like the Oar Strikes the Water" and I love how epic and cunning the chorus of "I Am the North" slithers out of Christoffersson's voice. In fact, most of "Iron Will" is entirely loveable. Grand Magus can take heavy/doom metal and stuff it with an illegal amount of voltage, and "Iron Will" is a monolithic landmark to the poignant and dynamic material wallowing in this wonderful faction. They can write compelling and passionate heavy metal tunes with just a few riffs per track, never leaving one of the nine songs to fall beneath the standard of sheer iron. Great stuff.

www.metal-archives.com
Musicians:

Guitars, Vocals : Janne "JB" Christoffersson
Bass : Fox Skinner
Drums : Sebastian "Seb" Sippola

Iron Will was recorded during midwinter 2007-2008 at Ramtitam, Stockholm, Sweden
Produced by Oneman and Grand Magus
Mixed and mastered by Oneman at Ramtitam

Track List:

01. Like The Oar Strikes The Water [3:15]
02. Fear Is The Key [3:32]
03. Hovding [0:40]
04. Iron Will [5:01]
05. Silver Into Steel [4:16]
06. The Shadow Knows [5:36]
07. Self Deceiver [4:50]
08. Beyond Good And Evil [5:15]
09. I Am The North [9:11]
10. Mountain Of Power (Demo, Japanese Bonus Track) [5:33]

Exact Audio Copy V1.0 beta 3 from 29. August 2011

Отчёт EAC об извлечении, выполненном 10. февраля 2013, 11:08

Grand Magus / Iron Will

Дисковод: PIONEER DVD-RW DVR-111D Adapter: 4 ID: 1

Режим чтения : Достоверность
Использование точного потока : Да
Отключение кэша аудио : Да
Использование указателей C2 : Нет

Коррекция смещения при чтении : 48
Способность читать области Lead-in и Lead-out : Нет
Заполнение пропущенных сэмплов тишиной : Да
Удаление блоков с тишиной в начале и конце : Нет
При вычислениях CRC использовались нулевые сэмплы : Да
Интерфейс : Встроенный Win32-интерфейс для Win NT/2000

Выходной формат : Пользовательский кодировщик
Выбранный битрейт : 128 kBit/s
Качество : Высокий
Добавление ID3-тега : Нет
Утилита сжатия : F:\Program Files\FLAC\flac.exe
Дополнительные параметры : -V -8 -T "Date=%year%" -T "Genre=%genre%" %source%


TOC извлечённого CD

Трек | Старт | Длительность | Начальный сектор | Конечный сектор
––––––––––––––––––––––––––––––––––-
1 | 0:00.00 | 3:14.44 | 0 | 14593
2 | 3:14.44 | 3:31.43 | 14594 | 30461
3 | 6:46.12 | 0:39.70 | 30462 | 33456
4 | 7:26.07 | 5:00.48 | 33457 | 56004
5 | 12:26.55 | 4:15.42 | 56005 | 75171
6 | 16:42.22 | 5:35.67 | 75172 | 100363
7 | 22:18.14 | 4:49.44 | 100364 | 122082
8 | 27:07.58 | 5:15.05 | 122083 | 145712
9 | 32:22.63 | 9:10.48 | 145713 | 187010
10 | 41:33.36 | 5:33.07 | 187011 | 211992


Характеристики диапазона извлечения и сообщения об ошибках

Выбранный диапазон

Имя файла D:\EAC - extract\Grand Magus - 2008 - Iron Will (VICP-64178).wav

Пиковый уровень 100.0 %
Скорость извлечения 6.9 X
Качество диапазона 100.0 %
CRC теста BF96341C
CRC копии BF96341C
Копирование… OK

Ошибок не произошло


AccurateRip: сводка

Трек 1 : извлечено точно (доверие 1) [3614B64D] (AR v1)
Трек 2 : извлечено точно (доверие 1) [5210F79C] (AR v1)
Трек 3 : извлечено точно (доверие 1) [49F55AB0] (AR v1)
Трек 4 : извлечено точно (доверие 1) [F3BAD76A] (AR v1)
Трек 5 : извлечено точно (доверие 1) [A0361157] (AR v1)
Трек 6 : извлечено точно (доверие 1) [A62A2CF3] (AR v1)
Трек 7 : извлечено точно (доверие 1) [6006E0E2] (AR v1)
Трек 8 : извлечено точно (доверие 1) [3508D5C3] (AR v1)
Трек 9 : извлечено точно (доверие 1) [6D162331] (AR v1)
Трек 10 : извлечено точно (доверие 1) [3C4FE292] (AR v1)

Все треки извлечены точно

Конец отчёта

==== Контрольная сумма отчёта BC21FDAE851B30E320DF88704A95EAE15F7201691F30139DDA36CDD8E9B08EF9 ====

Not my rip, not my scan-job. Thx very much to the original uploader Hellixxx!
5% WinRar Recovery Record for all files.
Try before you might buy. Support the artists you like and buy their stuff whenever you can afford it.
FLAC, image + atrwork or mp3 at FilePost.com:
FLAC | Artwork | Mp3 320 kbps