Subcategories
Tags
Language
Tags

Granville "Stick" McGhee - Complete Issues Recordings in Chronological Order, Volume 2: 1951-1960 (2012)

Posted By: gribovar
Granville "Stick" McGhee - Complete Issues Recordings in Chronological Order, Volume 2: 1951-1960 (2012)

Granville "Stick" McGhee - Complete Issues Recordings in Chronological Order, Volume 2: 1951-1960 (2012)
EAC Rip | FLAC (tracks+.cue+log) - 185 MB | Covers (11 MB) included
Genre: Blues, R&B | RAR 3% Rec. | Label: Document Records (DOCD-5695)

Meet You In The Morning bounces its way along with Brownie on vocal and guitar with Granville hollering the chorus. Another “rock and roller” that found favour but did not generate sufficient sales. In 1952 he was approached by Dave Miller’s Essex label based in Philadelphia. Essex did not have the resources of Atlantic. They had no house band and no publicity machine. At around this time it is likely that Granville turned to Bob Harris for to play bass with him. He resorted to one of his older compositions and recalled his army days again with a competent and moving performance of No More Reveille. Whiskey Woman and Loaded Dice is simply fun and catchy, the tune being derived from Jimmy Rodger’s version of “In The Jailhouse Now”. It’s not clear if these tracks garnered many sales for King but they invited Granville back in the September with a sparkling line up of session musicians and they cut some fine jump blues. Jungle Juice is an acceptable variant of “Drinking Wine” and Mickey Baker’s guitar licks are a particular pleasure. Wiggle Waggle Woo is rock and roll hokum, populist and pleasurable.
In February 1955 Granville was back at King and cut some fine blues tracks, the stress and strain serving to sharpen his vocals, the happy bounce of 1949 long gone but now the raw blues quality is appealing. The songs reflect the booze soaked life with its ups and downs personified in Double Crossin Liquor.
His final solo recording was for Herald Label sometime in 1960, with his favoured line up, although it’s not clear if it is Sonny Terry or J.C Burns on harmonica. Sleep In Job is probably autobiographical with Granville talking about working at the beach, washing pots and smoking pot, a change from the references to booze! The vocal doesn’t even sound like him, it’s a light and airy and only a hint of his trade mark growl. Interestingly, it has overtones of the youth orientated surfing songs that were that were to shortly overtake America. Money Fever’s lyrics would resonate with everyone and it is said that Granville did not re-record again with King because he never made any money at all from the sessions. The single had very limited success and it has been said that Granville became disillusioned with the music business. In fact, he recorded twice that year, 1960 saw Granville on guitar on Sonny Terry “Sonny’s Story” on Bluesville; J.C. Burris (hca) Sonny Terry (hca, vo) Sticks McGhee (g) Belton Evans (d) recorded at Rudy Van Gelder Studio, Englewood Cliffs, NJ, October 13, 1960.
Tracklist:
01. New Found Love
02. Meet You In The Morning
03. My Little Rose
04. No More Reveille
05. Little Things We Used To Do
06. Blues In My Heart & Tears In My Eyes
07. Whiskey Women And Loaded Dice
08. Head Happy With Wine
09. I'm Doin' All This Time (And You Put Me Down)
10. Dealin' From The Bottom
11. The Wiggle Waggle Woo
12. Jungle Juice
13. Ease My Worried Mind
14. Things Have Changed
15. Travelin' On
16. Help Me Baby
17. Double Crossin' Liquor
18. Six To Eight
19. Get Your Mind Out Of The Gutter
20. Sad Bad Glad
21. Money Fever
22. Sleep In Job

Total time: 55:52

Exact Audio Copy V1.1 from 23. June 2015

EAC extraction logfile from 9. February 2019, 8:37

Granville "Stick" McGhee / Volume 2 (1951 - 1960)

Used drive : ATAPI iHAS324 W Adapter: 1 ID: 0

Read mode : Secure
Utilize accurate stream : Yes
Defeat audio cache : Yes
Make use of C2 pointers : No

Read offset correction : 48
Overread into Lead-In and Lead-Out : No
Fill up missing offset samples with silence : Yes
Delete leading and trailing silent blocks : No
Null samples used in CRC calculations : Yes
Used interface : Native Win32 interface for Win NT & 2000
Gap handling : Appended to previous track

Used output format : User Defined Encoder
Selected bitrate : 128 kBit/s
Quality : High
Add ID3 tag : No
Command line compressor : C:\Users\Honeybear\Downloads\flac-1.3.2-win\flac-1.3.2-win\win32\flac.exe
Additional command line options : -T "artist=%artist%" -T "title=%title%" -T "album=%albumtitle%" -T "date=%year%" -T "tracknumber=%tracknr%" -T "genre=%genre%" -8 %source%


TOC of the extracted CD

Track | Start | Length | Start sector | End sector
––––––––––––––––––––––––––––-
1 | 0:00.00 | 2:48.58 | 0 | 12657
2 | 2:48.58 | 2:16.44 | 12658 | 22901
3 | 5:05.27 | 2:31.01 | 22902 | 34227
4 | 7:36.28 | 2:33.66 | 34228 | 45768
5 | 10:10.19 | 2:37.37 | 45769 | 57580
6 | 12:47.56 | 2:14.04 | 57581 | 67634
7 | 15:01.60 | 2:37.13 | 67635 | 79422
8 | 17:38.73 | 2:23.38 | 79423 | 90185
9 | 20:02.36 | 2:32.65 | 90186 | 101650
10 | 22:35.26 | 2:39.69 | 101651 | 113644
11 | 25:15.20 | 2:17.13 | 113645 | 123932
12 | 27:32.33 | 2:21.73 | 123933 | 134580
13 | 29:54.31 | 2:36.73 | 134581 | 146353
14 | 32:31.29 | 2:31.21 | 146354 | 157699
15 | 35:02.50 | 2:19.63 | 157700 | 168187
16 | 37:22.38 | 2:22.68 | 168188 | 178905
17 | 39:45.31 | 2:41.04 | 178906 | 190984
18 | 42:26.35 | 2:32.43 | 190985 | 202427
19 | 44:59.03 | 2:42.51 | 202428 | 214628
20 | 47:41.54 | 2:52.27 | 214629 | 227555
21 | 50:34.06 | 2:44.00 | 227556 | 239855
22 | 53:18.06 | 2:33.56 | 239856 | 251386


Track 1

Filename N:\My Rips\5695 - Granville ''Stick'' McGhee - Volume 2 (1951 - 1960) @flac HB\01 - New Found Love .wav

Pre-gap length 0:00:02.00

Peak level 97.3 %
Extraction speed 3.9 X
Track quality 100.0 %
Copy CRC E7166FEA
Accurately ripped (confidence 1) [FDD5E294] (AR v2)
Copy OK

Track 2

Filename N:\My Rips\5695 - Granville ''Stick'' McGhee - Volume 2 (1951 - 1960) @flac HB\02 - Meet You In The Morning .wav

Pre-gap length 0:00:02.00

Peak level 97.5 %
Extraction speed 4.7 X
Track quality 100.0 %
Copy CRC 2E5F5890
Accurately ripped (confidence 1) [E021C26E] (AR v2)
Copy OK

Track 3

Filename N:\My Rips\5695 - Granville ''Stick'' McGhee - Volume 2 (1951 - 1960) @flac HB\03 - My Little Rose .wav

Pre-gap length 0:00:02.00

Peak level 98.5 %
Extraction speed 5.1 X
Track quality 100.0 %
Copy CRC 3352CF00
Accurately ripped (confidence 1) [D8BDEC9C] (AR v2)
Copy OK

Track 4

Filename N:\My Rips\5695 - Granville ''Stick'' McGhee - Volume 2 (1951 - 1960) @flac HB\04 - No More Reveille .wav

Pre-gap length 0:00:02.00

Peak level 97.8 %
Extraction speed 5.3 X
Track quality 100.0 %
Copy CRC 60E13F9A
Accurately ripped (confidence 1) [D9646B19] (AR v2)
Copy OK

Track 5

Filename N:\My Rips\5695 - Granville ''Stick'' McGhee - Volume 2 (1951 - 1960) @flac HB\05 - Little Things We Used To Do .wav

Pre-gap length 0:00:02.00

Peak level 97.2 %
Extraction speed 5.6 X
Track quality 100.0 %
Copy CRC 1D127249
Accurately ripped (confidence 1) [AD1FFF12] (AR v2)
Copy OK

Track 6

Filename N:\My Rips\5695 - Granville ''Stick'' McGhee - Volume 2 (1951 - 1960) @flac HB\06 - Blues In My Heart & Tears In My Eyes .wav

Pre-gap length 0:00:02.00

Peak level 98.2 %
Extraction speed 5.7 X
Track quality 100.0 %
Copy CRC A5531C40
Accurately ripped (confidence 1) [CD5E4867] (AR v2)
Copy OK

Track 7

Filename N:\My Rips\5695 - Granville ''Stick'' McGhee - Volume 2 (1951 - 1960) @flac HB\07 - Whiskey Women And Loaded Dice .wav

Pre-gap length 0:00:02.00

Peak level 98.3 %
Extraction speed 5.8 X
Track quality 100.0 %
Copy CRC 4A72C6FE
Accurately ripped (confidence 1) [AB57E196] (AR v2)
Copy OK

Track 8

Filename N:\My Rips\5695 - Granville ''Stick'' McGhee - Volume 2 (1951 - 1960) @flac HB\08 - Head Happy With Wine .wav

Pre-gap length 0:00:02.00

Peak level 97.8 %
Extraction speed 5.7 X
Track quality 100.0 %
Copy CRC 72D1E805
Accurately ripped (confidence 1) [E1521A8B] (AR v2)
Copy OK

Track 9

Filename N:\My Rips\5695 - Granville ''Stick'' McGhee - Volume 2 (1951 - 1960) @flac HB\09 - I'm Doin' All This Time (And You Put Me Down) .wav

Pre-gap length 0:00:02.00

Peak level 97.5 %
Extraction speed 6.4 X
Track quality 100.0 %
Copy CRC 17F38E71
Accurately ripped (confidence 1) [C7D78D32] (AR v2)
Copy OK

Track 10

Filename N:\My Rips\5695 - Granville ''Stick'' McGhee - Volume 2 (1951 - 1960) @flac HB\10 - Dealin' From The Bottom .wav

Peak level 98.2 %
Extraction speed 6.6 X
Track quality 100.0 %
Copy CRC 35B2E5BE
Accurately ripped (confidence 1) [73D81A94] (AR v2)
Copy OK

Track 11

Filename N:\My Rips\5695 - Granville ''Stick'' McGhee - Volume 2 (1951 - 1960) @flac HB\11 - The Wiggle Waggle Woo .wav

Peak level 97.5 %
Extraction speed 6.3 X
Track quality 100.0 %
Copy CRC 82EB8ECE
Accurately ripped (confidence 1) [B56DD0F4] (AR v2)
Copy OK

Track 12

Filename N:\My Rips\5695 - Granville ''Stick'' McGhee - Volume 2 (1951 - 1960) @flac HB\12 - Jungle Juice .wav

Peak level 97.6 %
Extraction speed 6.9 X
Track quality 100.0 %
Copy CRC 5B4F3BB1
Accurately ripped (confidence 1) [E455F75A] (AR v2)
Copy OK

Track 13

Filename N:\My Rips\5695 - Granville ''Stick'' McGhee - Volume 2 (1951 - 1960) @flac HB\13 - Ease My Worried Mind .wav

Peak level 98.3 %
Extraction speed 7.2 X
Track quality 100.0 %
Copy CRC 60181D96
Accurately ripped (confidence 1) [F811FCAA] (AR v2)
Copy OK

Track 14

Filename N:\My Rips\5695 - Granville ''Stick'' McGhee - Volume 2 (1951 - 1960) @flac HB\14 - Things Have Changed .wav

Peak level 97.2 %
Extraction speed 7.1 X
Track quality 100.0 %
Copy CRC 82AB8B33
Accurately ripped (confidence 1) [C93B55EF] (AR v2)
Copy OK

Track 15

Filename N:\My Rips\5695 - Granville ''Stick'' McGhee - Volume 2 (1951 - 1960) @flac HB\15 - Travelin' On .wav

Peak level 97.6 %
Extraction speed 7.3 X
Track quality 100.0 %
Copy CRC C63B5DD5
Accurately ripped (confidence 1) [7D227103] (AR v2)
Copy OK

Track 16

Filename N:\My Rips\5695 - Granville ''Stick'' McGhee - Volume 2 (1951 - 1960) @flac HB\16 - Help Me Baby .wav

Peak level 98.2 %
Extraction speed 7.5 X
Track quality 100.0 %
Copy CRC EFB70E8C
Accurately ripped (confidence 1) [9BBB359C] (AR v2)
Copy OK

Track 17

Filename N:\My Rips\5695 - Granville ''Stick'' McGhee - Volume 2 (1951 - 1960) @flac HB\17 - Double Crossin' Liquor .wav

Peak level 97.7 %
Extraction speed 7.7 X
Track quality 100.0 %
Copy CRC 2E0AB6E0
Accurately ripped (confidence 1) [5B10B464] (AR v2)
Copy OK

Track 18

Filename N:\My Rips\5695 - Granville ''Stick'' McGhee - Volume 2 (1951 - 1960) @flac HB\18 - Six To Eight .wav

Peak level 98.3 %
Extraction speed 7.8 X
Track quality 100.0 %
Copy CRC 7643873B
Accurately ripped (confidence 1) [86A28888] (AR v2)
Copy OK

Track 19

Filename N:\My Rips\5695 - Granville ''Stick'' McGhee - Volume 2 (1951 - 1960) @flac HB\19 - Get Your Mind Out Of The Gutter .wav

Peak level 98.4 %
Extraction speed 5.3 X
Track quality 99.9 %
Copy CRC D2796170
Accurately ripped (confidence 1) [C09928AF] (AR v2)
Copy OK

Track 20

Filename N:\My Rips\5695 - Granville ''Stick'' McGhee - Volume 2 (1951 - 1960) @flac HB\20 - Sad Bad Glad .wav

Peak level 97.4 %
Extraction speed 7.8 X
Track quality 100.0 %
Copy CRC 5E57E5B7
Accurately ripped (confidence 1) [A507C51C] (AR v2)
Copy OK

Track 21

Filename N:\My Rips\5695 - Granville ''Stick'' McGhee - Volume 2 (1951 - 1960) @flac HB\21 - Money Fever .wav

Peak level 97.6 %
Extraction speed 5.5 X
Track quality 99.9 %
Copy CRC 90F76932
Accurately ripped (confidence 1) [2A0887AD] (AR v2)
Copy OK

Track 22

Filename N:\My Rips\5695 - Granville ''Stick'' McGhee - Volume 2 (1951 - 1960) @flac HB\22 - Sleep In Job .wav

Peak level 97.3 %
Extraction speed 7.6 X
Track quality 100.0 %
Copy CRC EE1B8B76
Accurately ripped (confidence 1) [CAC33AA2] (AR v2)
Copy OK


All tracks accurately ripped

No errors occurred

End of status report

–– CUETools DB Plugin V2.1.6

[CTDB TOCID: 2plDO4Mn1X9EsFLuvj30QKXzOeo-] found
Submit result: already submitted
Track | CTDB Status
1 | (1/1) Accurately ripped
2 | (1/1) Accurately ripped
3 | (1/1) Accurately ripped
4 | (1/1) Accurately ripped
5 | (1/1) Accurately ripped
6 | (1/1) Accurately ripped
7 | (1/1) Accurately ripped
8 | (1/1) Accurately ripped
9 | (1/1) Accurately ripped
10 | (1/1) Accurately ripped
11 | (1/1) Accurately ripped
12 | (1/1) Accurately ripped
13 | (1/1) Accurately ripped
14 | (1/1) Accurately ripped
15 | (1/1) Accurately ripped
16 | (1/1) Accurately ripped
17 | (1/1) Accurately ripped
18 | (1/1) Accurately ripped
19 | (1/1) Accurately ripped
20 | (1/1) Accurately ripped
21 | (1/1) Accurately ripped
22 | (1/1) Accurately ripped


==== Log checksum 68E6389FD88AFE0CEB1706B7B2AE4CD65B9EF7CFC7577A061FB9E0C33929022F ====

[CUETools log; Date: 04.02.2020 7:24:22; Version: 2.1.4]
[CTDB TOCID: 2plDO4Mn1X9EsFLuvj30QKXzOeo-] found.
Track | CTDB Status
1 | (1/1) Accurately ripped
2 | (1/1) Accurately ripped
3 | (1/1) Accurately ripped
4 | (1/1) Accurately ripped
5 | (1/1) Accurately ripped
6 | (1/1) Accurately ripped
7 | (1/1) Accurately ripped
8 | (1/1) Accurately ripped
9 | (1/1) Accurately ripped
10 | (1/1) Accurately ripped
11 | (1/1) Accurately ripped
12 | (1/1) Accurately ripped
13 | (1/1) Accurately ripped
14 | (1/1) Accurately ripped
15 | (1/1) Accurately ripped
16 | (1/1) Accurately ripped
17 | (1/1) Accurately ripped
18 | (1/1) Accurately ripped
19 | (1/1) Accurately ripped
20 | (1/1) Accurately ripped
21 | (1/1) Accurately ripped
22 | (1/1) Accurately ripped
[AccurateRip ID: 002bac65-02bab290-1e0d1716] found.
Track [ CRC | V2 ] Status
01 [6a779be0|fdd5e294] (0+2/2) Accurately ripped
02 [86d17a2a|e021c26e] (0+2/2) Accurately ripped
03 [81fc7394|d8bdec9c] (0+2/2) Accurately ripped
04 [6cb344a7|d9646b19] (0+2/2) Accurately ripped
05 [a2a6bf2c|ad1fff12] (0+2/2) Accurately ripped
06 [b85cdd10|cd5e4867] (0+2/2) Accurately ripped
07 [8f40739e|ab57e196] (0+2/2) Accurately ripped
08 [c8435fa3|e1521a8b] (0+2/2) Accurately ripped
09 [48719955|c7d78d32] (0+2/2) Accurately ripped
10 [5a3d86ac|73d81a94] (0+2/2) Accurately ripped
11 [053520cd|b56dd0f4] (0+2/2) Accurately ripped
12 [7dfeaafc|e455f75a] (0+2/2) Accurately ripped
13 [bf88d414|f811fcaa] (0+2/2) Accurately ripped
14 [b24004c5|c93b55ef] (0+2/2) Accurately ripped
15 [a7b32de1|7d227103] (0+2/2) Accurately ripped
16 [eed4b378|9bbb359c] (0+2/2) Accurately ripped
17 [32da8b26|5b10b464] (0+2/2) Accurately ripped
18 [3e74610e|86a28888] (0+2/2) Accurately ripped
19 [21b65405|c09928af] (0+2/2) Accurately ripped
20 [58ef72e1|a507c51c] (0+2/2) Accurately ripped
21 [96d106e5|2a0887ad] (0+2/2) Accurately ripped
22 [696a0ed1|cac33aa2] (0+2/2) Accurately ripped

Track Peak [ CRC32 ] [W/O NULL] [ LOG ]
– 98,5 [45E3C745] [0408E07A]
01 97,3 [E7166FEA] [CA8EFB79] CRC32
02 97,5 [2E5F5890] [1F89E1DC] CRC32
03 98,5 [3352CF00] [74EEA6B0] CRC32
04 97,8 [60E13F9A] [7E9032A3] CRC32
05 97,2 [1D127249] [506A5241] CRC32
06 98,2 [A5531C40] [8BEC8391] CRC32
07 98,3 [4A72C6FE] [0A24ED67] CRC32
08 97,8 [72D1E805] [C89C22A0] CRC32
09 97,4 [17F38E71] [73034579] CRC32
10 98,2 [35B2E5BE] [779E39F9] CRC32
11 97,5 [82EB8ECE] [C9D4AF14] CRC32
12 97,6 [5B4F3BB1] [4C3CCF88] CRC32
13 98,3 [60181D96] [C0933987] CRC32
14 97,2 [82AB8B33] [E778232A] CRC32
15 97,6 [C63B5DD5] [F14E2ECA] CRC32
16 98,2 [EFB70E8C] [FCBE3018] CRC32
17 97,7 [2E0AB6E0] [92E07ED2] CRC32
18 98,3 [7643873B] [B27ADD90] CRC32
19 98,4 [D2796170] [2B6D851C] CRC32
20 97,4 [5E57E5B7] [5603B1D7] CRC32
21 97,6 [90F76932] [3CE83F24] CRC32
22 97,3 [EE1B8B76] [8C2A9BD7] CRC32

Thanks to yardraw

See also:
Granville "Stick" Mc...er, Volume 1: 1946-1951 (2012)