Tags
Language
Tags

Great White - Psycho City (1992)

Posted By: popsakov
Great White - Psycho City (1992)

Great White - Psycho City (1992)
EAC Rip | FLAC (Img) + Cue + Log ~ 439 Mb | MP3 CBR320 ~ 149 Mb
Full Scans ~ 113 Mb | 01:01:53 | RAR 5% Recovery
Hard Rock | Capitol Records #CDP 0777 7 98835 2 3

Psycho City is the sixth studio album by the American hard rock band Great White, released in 1992. It was the last studio album produced for Capitol Records, with the exception of the 1993 compilation The Best of Great White: 1986–1992.
Great White - Psycho City (1992)

Great White - Psycho City (1992)


***************

Great White - Psycho City (1992)

Great White - Psycho City (1992)

Track List:

01. Psycho City [6:07]
02. Step On You [5:50]
03. Old Rose Motel [7:24]
04. Maybe Someday [7:24]
05. Big Goodbye [5:58]
06. Doctor Me [6:14]
07. I Want You [3:42]
08. Never Trust A Pretty Face [5:30]
09. Love Is A Lie [8:15]
10. Get On Home [5:28]

Personnel:
Jack Russell - lead and backing vocals
Mark Kendall - guitar, backing vocals
Michael Lardie - guitar, keyboards, percussion, backing vocals
Audie Desbrow - drums

Additional musicians:
Alan Niven - backing vocals, percussion
Dave "The Beast" Spitz - bass
Richie Gajate Garcia - percussion
Rick Brewster - guitar

Exact Audio Copy V1.1 from 23. June 2015

EAC extraction logfile from 22. September 2017, 18:57

Great White / Psycho City

Used drive : Optiarc DVD RW AD-7283S Adapter: 1 ID: 0

Read mode : Secure
Utilize accurate stream : Yes
Defeat audio cache : Yes
Make use of C2 pointers : No

Read offset correction : 48
Overread into Lead-In and Lead-Out : No
Fill up missing offset samples with silence : Yes
Delete leading and trailing silent blocks : No
Null samples used in CRC calculations : Yes
Used interface : Native Win32 interface for Win NT & 2000

Used output format : User Defined Encoder
Selected bitrate : 128 kBit/s
Quality : High
Add ID3 tag : No
Command line compressor : C:\Program Files (x86)\Exact Audio Copy\Flac\flac.exe
Additional command line options : -V -8 -T "Genre=%genre%" -T "Artist=%artist%" -T "Title=%title%" -T "Album=%albumtitle%" -T "Date=%year%" -T "Tracknumber=%tracknr%" -T "Comment=%comment%" %source%


TOC of the extracted CD

Track | Start | Length | Start sector | End sector
––––––––––––––––––––––––––––-
1 | 0:00.00 | 6:07.15 | 0 | 27539
2 | 6:07.15 | 5:50.05 | 27540 | 53794
3 | 11:57.20 | 7:24.25 | 53795 | 87119
4 | 19:21.45 | 7:24.02 | 87120 | 120421
5 | 26:45.47 | 5:57.65 | 120422 | 147261
6 | 32:43.37 | 6:13.55 | 147262 | 175291
7 | 38:57.17 | 3:41.70 | 175292 | 191936
8 | 42:39.12 | 5:29.60 | 191937 | 216671
9 | 48:08.72 | 8:15.10 | 216672 | 253806
10 | 56:24.07 | 5:28.33 | 253807 | 278439


Range status and errors

Selected range

Filename F:\alexbras\Great White - 1992 - Psycho City (1992 US Capitol CDP 0777 7 98835 2 3)\Great White - Psycho City.wav

Peak level 100.0 %
Extraction speed 4.2 X
Range quality 100.0 %
Test CRC DA659A20
Copy CRC DA659A20
Copy OK

No errors occurred


AccurateRip summary

Track 1 accurately ripped (confidence 19) [E73916EB] (AR v2)
Track 2 accurately ripped (confidence 19) [15F2DF1E] (AR v2)
Track 3 accurately ripped (confidence 19) [F7812DF6] (AR v2)
Track 4 accurately ripped (confidence 18) [BC343099] (AR v2)
Track 5 accurately ripped (confidence 19) [8AE2C395] (AR v2)
Track 6 accurately ripped (confidence 19) [DD171333] (AR v2)
Track 7 accurately ripped (confidence 19) [45B1C582] (AR v2)
Track 8 accurately ripped (confidence 20) [586197BA] (AR v2)
Track 9 accurately ripped (confidence 19) [8731DF00] (AR v2)
Track 10 accurately ripped (confidence 18) [2FC487F2] (AR v2)

All tracks accurately ripped

End of status report

==== Log checksum 07D7382F92DD188B58C3624B896BCAA338A257FC773EAAA9890E00C715FD1EB0 ====

[CUETools log; Date: 22.09.2017 22:08:57; Version: 2.1.5]
[CTDB TOCID: CzJVaFeMkhqOZGTsoCyD7eeyTnE-] found.
Track | CTDB Status
1 | (103/104) Accurately ripped
2 | (101/104) Accurately ripped
3 | ( 99/104) Accurately ripped
4 | (101/104) Accurately ripped
5 | (101/104) Accurately ripped
6 | (103/104) Accurately ripped
7 | (101/104) Accurately ripped
8 | (100/104) Accurately ripped
9 | (100/104) Accurately ripped
10 | ( 97/104) Accurately ripped
[AccurateRip ID: 0017af9f-00bca95e-990e800a] found.
Track [ CRC | V2 ] Status
01 [f4b714a8|e73916eb] (024+019/108) Accurately ripped
02 [13b276e3|15f2df1e] (024+019/107) Accurately ripped
03 [39df08c1|f7812df6] (023+019/106) Accurately ripped
04 [a325b607|bc343099] (023+018/106) Accurately ripped
05 [0c7b9218|8ae2c395] (024+019/108) Accurately ripped
06 [a36d4d1f|dd171333] (023+019/107) Accurately ripped
07 [882c168a|45b1c582] (023+019/107) Accurately ripped
08 [a5e36385|586197ba] (024+020/108) Accurately ripped
09 [829571a1|8731df00] (024+019/108) Accurately ripped
10 [a002fa64|2fc487f2] (024+018/107) Accurately ripped
Offsetted by -676:
01 [33d9a5b8] (002/108) Accurately ripped
02 [e2d188f3] (002/107) Accurately ripped
03 [9c818041] (002/106) Accurately ripped
04 [300f14d7] (002/106) Accurately ripped
05 [fcca8430] (002/108) Accurately ripped
06 [4c50f357] (002/107) Accurately ripped
07 [90765192] (002/107) Accurately ripped
08 [26f7a459] (002/108) Accurately ripped
09 [730d7f65] (002/108) Accurately ripped
10 [3a8272c4] (002/107) Accurately ripped
Offsetted by 60:
01 [d0e4ce38] (024/108) Accurately ripped
02 [821eb973] (024/107) Accurately ripped
03 [92103c41] (024/106) Accurately ripped
04 [06bc2b57] (024/106) Accurately ripped
05 [477004f0] (024/108) Accurately ripped
06 [fb715517] (024/107) Accurately ripped
07 [4800992d] (024/107) Accurately ripped
08 [188775be] (023/108) Accurately ripped
09 [fea91585] (024/108) Accurately ripped
10 [1615f5c4] (024/107) Accurately ripped
Offsetted by 1694:
01 [e9a9c770] (004/108) Accurately ripped
02 [de1bce2b] (004/107) Accurately ripped
03 [3818f281] (004/106) Accurately ripped
04 [0dc62eaf] (004/106) Accurately ripped
05 [95823c84] (004/108) Accurately ripped
06 [60f02e1b] (004/107) Accurately ripped
07 [a4d08cb2] (004/107) Accurately ripped
08 [c5ff7e53] (004/108) Accurately ripped
09 [98154913] (004/108) Accurately ripped
10 [72703c14] (004/107) Accurately ripped

Track Peak [ CRC32 ] [W/O NULL] [ LOG ]
– 99,9 [DA659A20] [B19D0119] CRC32
01 99,9 [97EE18B5] [FD8702DE]
02 99,9 [471DBF38] [D49FFB05]
03 99,9 [10325922] [9952F9E9]
04 99,9 [421FEDD8] [96BAA1CF]
05 99,9 [BA403EFD] [BA9E51F6]
06 99,9 [962B5997] [649F3898]
07 99,9 [ECBFF696] [0167768F]
08 99,9 [5A668D8A] [E62783B6]
09 99,9 [7E951BD2] [BFA8270E]
10 99,9 [5A65FA0F] [FC040623]

Great White - Psycho City (1992)


All thanks go to alex1248

>>> Great White in my Blog <<<

DOWNLOAD: