Tags
Language
Tags

Greg Ward & 10 Tongues - Touch My Beloved's Thought (2016) {Greenleaf}

Posted By: tiburon
Greg Ward & 10 Tongues - Touch My Beloved's Thought (2016) {Greenleaf}

Greg Ward & 10 Tongues - Touch My Beloved's Thought (2016) {Greenleaf}
EAC 1.3 | FLAC tracks level 8 | Cue+Log+M3U | Full Scans 300dpi | 325MB + 5% Recovery
MP3 CBR 320 Kbps | 116MB + 5% Recovery
Genre: Avant-Garde Jazz, Post-Bop
Greg Ward & 10 Tongues - Touch My Beloved's Thought (2016) {Greenleaf}

To describe saxophonist Greg Ward's Touch My Beloved's Thought as his magnum opus is to impede his development as a composer. Let's just say for many a jazz artist, if this recording were included in their discography, it would be their signature piece. For Ward, it just represents the possibilities.
Track List
1. Daybreak (06:48)
2. Singular Serande (04:03)
3. The Menacing Lean (06:32)
4. Smash, Push, Pull, Crash (00:46)
5. With All Your Sorrow, Sing a Song of Jubilance (05:47)
6. Grit (03:26)
7. Round 3 (06:21)
8. Dialogue of the Black Saint (04:41)
9. Gather Round, The Revolution Is At Hand (12:34)

musicians
Greg Ward - alto saxophone
Tim Haldeman - tenor saxophone
Keefe Jackson - tenor saxophone, baritone saxophone
Ben LaMar Gay - cornet
Russ Johnson - trumpet
Norman Palm - trombone
Christopher Davis - bass trombone
Dennis Luxion - piano
Jason Roebke - bass
Marcus Evan - drums

Produced by Greg Ward, Mike Reed and Roell Smidt


Exact Audio Copy V1.3 from 2. September 2016

EAC extraction logfile from 11. November 2016, 11:53

Greg Ward & 10 Tongues / Touch My Beloved's Thought

Used drive : ATAPI iHBS112 2 Adapter: 1 ID: 1

Read mode : Secure
Utilize accurate stream : Yes
Defeat audio cache : Yes
Make use of C2 pointers : No

Read offset correction : 6
Overread into Lead-In and Lead-Out : No
Fill up missing offset samples with silence : Yes
Delete leading and trailing silent blocks : No
Null samples used in CRC calculations : Yes
Used interface : Native Win32 interface for Win NT & 2000
Gap handling : Appended to previous track

Used output format : User Defined Encoder
Selected bitrate : 128 kBit/s
Quality : High
Add ID3 tag : No
Command line compressor : C:\Program Files (x86)\Exact Audio Copy\Flac\flac.exe
Additional command line options : -8 -V -T "ARTIST=%artist%" -T "TITLE=%title%" -T "ALBUM=%albumtitle%" -T "DATE=%year%" -T "TRACKNUMBER=%tracknr%" -T "GENRE=%genre%" -T "PERFORMER=%albuminterpret%" -T "COMPOSER=%composer%" -T "ALBUMARTIST=%albumartist%" -T "DISCNUMBER=%cdnumber%" -T "TOTALDISCS=%totalcds%" -T "TOTALTRACKS=%numtracks%" -T "COMMENT=EAC Secure Mode, Test & Copy, AccurateRip, FLAC -8" %source% -o %dest%


TOC of the extracted CD

Track | Start | Length | Start sector | End sector
––––––––––––––––––––––––––––-
1 | 0:00.00 | 6:48.24 | 0 | 30623
2 | 6:48.24 | 4:02.72 | 30624 | 48845
3 | 10:51.21 | 6:32.04 | 48846 | 78249
4 | 17:23.25 | 0:45.59 | 78250 | 81683
5 | 18:09.09 | 5:47.23 | 81684 | 107731
6 | 23:56.32 | 3:26.28 | 107732 | 123209
7 | 27:22.60 | 6:20.60 | 123210 | 151769
8 | 33:43.45 | 4:41.22 | 151770 | 172866
9 | 38:24.67 | 12:34.26 | 172867 | 229442


Track 1

Filename D:\DL\Greg Ward & 10 Tongues - Touch My Beloved's Thought (2016) [FLAC]\01 - Daybreak.wav

Pre-gap length 0:00:02.00

Peak level 100.0 %
Extraction speed 5.0 X
Track quality 99.9 %
Test CRC B624779E
Copy CRC B624779E
Accurately ripped (confidence 2) [3225079B] (AR v2)
Copy OK

Track 2

Filename D:\DL\Greg Ward & 10 Tongues - Touch My Beloved's Thought (2016) [FLAC]\02 - Singular Serenade.wav

Peak level 67.4 %
Extraction speed 5.9 X
Track quality 100.0 %
Test CRC 71979730
Copy CRC 71979730
Accurately ripped (confidence 2) [5FAD2FC1] (AR v2)
Copy OK

Track 3

Filename D:\DL\Greg Ward & 10 Tongues - Touch My Beloved's Thought (2016) [FLAC]\03 - The Menacing Lean.wav

Peak level 100.0 %
Extraction speed 6.9 X
Track quality 100.0 %
Test CRC 7F935CA2
Copy CRC 7F935CA2
Accurately ripped (confidence 2) [1A6060D3] (AR v2)
Copy OK

Track 4

Filename D:\DL\Greg Ward & 10 Tongues - Touch My Beloved's Thought (2016) [FLAC]\04 - Smash, Push, Pull, Crash.wav

Peak level 100.0 %
Extraction speed 2.6 X
Track quality 99.7 %
Test CRC C2E97534
Copy CRC C2E97534
Accurately ripped (confidence 2) [35A93362] (AR v2)
Copy OK

Track 5

Filename D:\DL\Greg Ward & 10 Tongues - Touch My Beloved's Thought (2016) [FLAC]\05 - With All Your Sorrow, Sing A Song of Jubilance.wav

Peak level 100.0 %
Extraction speed 7.5 X
Track quality 100.0 %
Test CRC 52D0FE70
Copy CRC 52D0FE70
Accurately ripped (confidence 2) [72471E02] (AR v2)
Copy OK

Track 6

Filename D:\DL\Greg Ward & 10 Tongues - Touch My Beloved's Thought (2016) [FLAC]\06 - Grit.wav

Peak level 94.2 %
Extraction speed 7.4 X
Track quality 100.0 %
Test CRC 6935A02E
Copy CRC 6935A02E
Accurately ripped (confidence 2) [74246CC8] (AR v2)
Copy OK

Track 7

Filename D:\DL\Greg Ward & 10 Tongues - Touch My Beloved's Thought (2016) [FLAC]\07 - Round 3.wav

Peak level 100.0 %
Extraction speed 7.5 X
Track quality 99.9 %
Test CRC B3A6878C
Copy CRC B3A6878C
Accurately ripped (confidence 2) [004B4C77] (AR v2)
Copy OK

Track 8

Filename D:\DL\Greg Ward & 10 Tongues - Touch My Beloved's Thought (2016) [FLAC]\08 - Dialogue of the Black Saint.wav

Peak level 100.0 %
Extraction speed 8.6 X
Track quality 100.0 %
Test CRC 7D107950
Copy CRC 7D107950
Accurately ripped (confidence 2) [F1398F1E] (AR v2)
Copy OK

Track 9

Filename D:\DL\Greg Ward & 10 Tongues - Touch My Beloved's Thought (2016) [FLAC]\09 - Gather Round, The Revolution Is At Hand.wav

Peak level 100.0 %
Extraction speed 9.9 X
Track quality 100.0 %
Test CRC F94473D1
Copy CRC F94473D1
Accurately ripped (confidence 2) [C588875E] (AR v2)
Copy OK


All tracks accurately ripped

No errors occurred

End of status report

–– CUETools DB Plugin V2.1.6

[CTDB TOCID: xCE7OUkXAyK.yhDvOXoc.DNJLcw-] found
Submit result: xCE7OUkXAyK.yhDvOXoc.DNJLcw- has been confirmed
Track | CTDB Status
1 | (3/3) Accurately ripped
2 | (3/3) Accurately ripped
3 | (3/3) Accurately ripped
4 | (3/3) Accurately ripped
5 | (3/3) Accurately ripped
6 | (3/3) Accurately ripped
7 | (3/3) Accurately ripped
8 | (3/3) Accurately ripped
9 | (3/3) Accurately ripped


==== Log checksum 4EF928AE264BF1483171AFF4AB030052B300A63DD57CA82759DA68017F06AC2D ====


––––––––––––––––––––––––––––––––––––––––
Analyzed: Greg Ward & 10 Tongues / Touch My Beloved's Thought
––––––––––––––––––––––––––––––––––––––––

DR Peak RMS Duration Track
––––––––––––––––––––––––––––––––––––––––
DR13 0.00 dB -15.70 dB 6:48 01-Daybreak
DR18 -3.42 dB -27.44 dB 4:03 02-Singular Serenade
DR12 0.00 dB -15.68 dB 6:32 03-The Menacing Lean
DR12 0.00 dB -15.07 dB 0:46 04-Smash, Push, Pull, Crash
DR12 0.00 dB -16.23 dB 5:47 05-With All Your Sorrow, Sing A Song of Jubilance
DR14 -0.52 dB -17.46 dB 3:26 06-Grit
DR13 0.00 dB -15.47 dB 6:21 07-Round 3
DR14 0.00 dB -16.90 dB 4:41 08-Dialogue of the Black Saint
DR13 0.00 dB -15.02 dB 12:34 09-Gather Round, The Revolution Is At Hand
––––––––––––––––––––––––––––––––––––––––

Number of tracks: 9
Official DR value: DR13

Samplerate: 44100 Hz
Channels: 2
Bits per sample: 16
Bitrate: 855 kbps
Codec: FLAC
================================================================================

Greg Ward & 10 Tongues - Touch My Beloved's Thought (2016) {Greenleaf}
Greg Ward & 10 Tongues - Touch My Beloved's Thought (2016) {Greenleaf}


Thanks to the original ripper