Subcategories

Sofia Gubaidulina - Am Rande des Abgrunds, De profundis, Quaternion, In croce (repost)

Posted By: tapaz9
Sofia Gubaidulina - Am Rande des Abgrunds, De profundis, Quaternion, In croce (repost)

Sofia Gubaidulina - Am Rande des Abgrunds, De profundis, Quaternion, In croce (repost)
Classical | EAC: FLAC+Cue+Log | 1 Cd, Covers + Booklet | 358 Mb
Label: Wergo - Date: 2006

This CD brings together four chamber works by Sofia Gubaidulina dating from 1978 to 2002. Part of the reason Gubaidulina's works are so aurally appealing is that, in spite of being thoroughly "modern," they are innovative not so much in their pitch organization, the hallmark of modernism in twentieth century music, but in their innovative timbral qualities and the individuality of their approach to structure. Another element in their appeal is the sensitivity and musicality with which she assembles her colorful structures – her gestures always seem precisely placed, based on her mysterious but convincing musical logic. An analyst would be hard-pressed to explain just why her music works so well, but the fact that it does work is inarguable.
Am Rande des Abgrunds (On the Edge of the Abyss), scored for the eccentric combination of seven celli and two waterphones, is notable for its disarming simplicity. Its prevailing tone of spaciousness and naïve calm, punctuated by percussive outbursts, gives way to a more tumultuous section that is interrupted by moments of great harmonic sweetness and the otherworldly glissandi of waterphones. Gubaidulina uses the accordion, played here by virtuoso Stefan Hussong, to make her De Profundis a great heaving prayer for deliverance from the depths. Her largely introspective Quaternion, a quartet for pairs of cellos tuned a quarter tone apart lasting nearly half an hour, seems less immediately engaging than the other works on the CD, perhaps because even though the composer draws a wide range of colors and sounds from the celli, the textural and coloristic variety of the homogenous ensemble is more muted than that of the works that surround it, and its extended unfolding requires more patience from the listener. Quaternion would probably have been better placed on the first track, where its considerable strengths could have made an impression before being upstaged by the more exotic sonic worlds of the other works.
The performers give exquisitely detailed attention to the nuances of the music and play with complete conviction and technical finesse. The clear and vibrant sound quality of Wergo's recording is exemplary.
Stephen Eddins @ AllMusic.com
Requested by 13mh13

Tracks:

01. Am Rande des Abgrunds [0:15:44.49]
02. De Profundis [0:13:56.43]
03. Quaternion [0:27:14.58]
04. In Croce [0:14:19.48]


Exact Audio Copy V1.0 beta 3 from 29. August 2011

EAC extraction logfile from 21. February 2013, 0:51

Sofia Gubaidulina / Am Rande des Abgrunds, De profundis, Quaternion, In croce

Used drive : TSSTcorpCDDVDW SH-S223C Adapter: 2 ID: 1

Read mode : Secure
Utilize accurate stream : Yes
Defeat audio cache : Yes
Make use of C2 pointers : No

Read offset correction : 697
Overread into Lead-In and Lead-Out : No
Fill up missing offset samples with silence : Yes
Delete leading and trailing silent blocks : No
Null samples used in CRC calculations : Yes
Used interface : Native Win32 interface for Win NT & 2000

Used output format : User Defined Encoder
Selected bitrate : 896 kBit/s
Quality : High
Add ID3 tag : No
Command line compressor : C:\Program Files (x86)\Exact Audio Copy\FLAC\FLAC.EXE
Additional command line options : -V -0 -T "COMMENT=Ripped by Tapaz9" -T "artist=%artist%" -T "title=%title%" -T "album=%albumtitle%" -T "date=%year%" -T "tracknumber=%tracknr%" -T "genre=%genre%" %source%


TOC of the extracted CD

Track | Start | Length | Start sector | End sector
––––––––––––––––––––––––––––-
1 | 0:00.00 | 15:44.49 | 0 | 70848
2 | 15:44.49 | 13:56.43 | 70849 | 133591
3 | 29:41.17 | 27:14.58 | 133592 | 256199
4 | 56:56.00 | 14:19.48 | 256200 | 320672


Range status and errors

Selected range

Filename F:\Musique\Gubaidulina, Sofia\Gubaidulina_AmRandeDesAbgrunds\Sofia Gubaidulina - Am Rande des Abgrunds, De profundis, Quaternion, In croce.wav

Peak level 99.2 %
Extraction speed 13.4 X
Range quality 100.0 %
Copy CRC 0F319993
Copy OK

No errors occurred

End of status report

==== Log checksum AD22C24716C1D1AE4DFD0BD7A94F8FA96435A0D4A1BE791C3A3C4530DB7B0C66 ====

No Mirrors and Torrent-uploads Please

See my classical digital download posts in the Vinyl & HR section or check out My Avax blog