Tags
Language
Tags

Gunar Letzbor, Ars Antiqua Austria - The Music of Habsburg Empire [10CDs] (2015)

Posted By: ArlegZ
Gunar Letzbor, Ars Antiqua Austria - The Music of Habsburg Empire [10CDs] (2015)

Gunar Letzbor, Ars Antiqua Austria - The Music of Habsburg Empire [10CDs] (2015)
EAC | FLAC | Image (Cue & Log) ~ 2.74 Gb | Total time: 10:09:02 | Scans included
Classical | Label: Pan Classics | # PC 10311 | Recorded: 2001-2009

The Habsburg Imperial Court was a melting pot of many different cultures in which the zest for living of southerners, the Slav melancholy, French formalism, Spanish courtliness and the original German-speaking Alpine cultural region intermingled. Together with his Ars Antiqua Austria ensemble, Gunar Letzbor occupied himself over a ten year period to produce this 10CD "Klang der Kulturen" box, a musical tour of the individual countries that formed the roots of and influences on the music of baroque Vienna, documenting them in live recordings, with each CD representing one country.

Performer:
Ars Antiqua Austria
Gunar Letzbor, director

Track List:
CD01: Slovakia
Johann Sigismund Kusser (1660-1727)
01-05. from Suite No.1
Pál Esterházy (1635-1713)
06. O mors
Samuel Friedrich Capricornus? (1628-1665)
07. Sonata III à 3
Georg Daniel Speer (1636-1707)
from Gazzetta turco-musicale I
08. Kosaken Ballett
09. Pohlnisch Ballet
10. Lompyn libera il suo padrone Cergely
11. Wallachisches Ballet
12. Kosaken Ballett
13-18. Folk Music from Slovakia Rooted in the Baroque Era

CD02: Slovenia
Isaac Posch (um 1587-1622/23)
from Musicalische Tafelfreudt
01. Paduana IX
02. Gagliarda IX
03. Intrada X
04. Couranta X
Johann Baptist Dolar (um 1620-1673)
05-08. Suite I from Balletti à 4
Giuseppe Tartini (1692-1770)
09-11. Sonata VII in A minor for Violin & b.c.
Amandus Ivanschiz
12-14. Divertimento in C major for violin, viola & cello
Wenzel Raimund Birck (1718-1763)
15-17. Concerto ex C for cembalo, 2 violins & bass
Johann Baptist Dolar
18-23. Suite II from Balletti à 4
Isaac Posch
aus Musicalische Tafelfreudt
24. Paduana V
25. Gagliarda V
26. Intrada IX

CD03: Hungary
01. Hungarian dances of the 18th century
Gregor Joseph Werner (1693-1766)
02. Alma redemptoris mater
Johann Joseph Fux (ca.1659-1741)
03. Sinfonia a 3 ex C
Pál Esterházy (1635-1713)
04. Jesu parve - Jesum ardentibus - O quam dulcis es - Ave dulcis virgo
Joseph Haydn (1732-1809)
from Zingarese per il Clavi Cembalo
05. Tanz 1 - Adagio - Tanz 2
Wolfgang Ebner (ca.1611-1665)
06. Sonatina for 2 violins, viola da gamba & organ
Georg Daniel Speer (1636-1707)
from Musicalisch-Türckischer Eulenspiegel
07. Hungarisch Ballet
Gregor Joseph Werner
08. Regina coeli
Johann Heinrich Schmelzer (ca. 1620/23-1680)
09. La bella zingara
Anonymous
10. Danza ungherese

CD04: Poland
Marcin Mielczewski (?-1651)
01. Canzona for 2 violin & b.c.
Mikolaj Zielenski
02. Video caelos apertos for soprano & organ
Heinrich Döbel (1651-1693)
03. Sonata in A major for violin solo & b.c.
Johann Nauwach (?1595-1644?)
04. Tempesta di dolcessa for soprano & b.c.
Silvius Leopold Weiss (1686-1750)
05-08. Suonate L'Infedele
Georg Daniel Speer (1636-1707)
from Musicalisch-Türckischer Eulenspiegel
09. Polnisch Ballet 'Es thät ein Venus Narr'
10. Polnisch Ballet 'Als nun das dumme Vieh'
11. Proportion 'Als dieses war vorbey'
Anonymous
12. Nie zlodziem, choc kradne - Taniez, Serce mi waiela M.B.

CD05: Bohemia
01. Hörner Solo: St.Hubert-Lied - Bon-repos-Lied
Anonymous
02. Sonata a 3
Gottfried Heinrich Stölzel (1690-1749)
03-05. Enharmonische Sonate in C minor for cembalo
Johann Anton Losy (ca.1650-1721)
06-10. Suite in G major for lute solo
Franticek Václav Habermann (1706-1783)
11-13. Konzert in D major
14. Jägerlieder: O Diana
15. Jägerlieder: O Zajíckovi
16. Hörner Solo: Interludium
Antonin Reichenauer (1694-1730)
17-20. Trio in D major for 2 violins & b.c.
Antonio Vivaldi (1678-1741)
21-23. Trio in G minor for lute, violin & b.c.
24. Caffe-Music - Responsorium ad querelam Rustici
25. Jägerlieder - Eja chase
26. Jägerlieder - O Zajíckovi

CD06: Moravia
01. Wir befinden uns in einem Kloster
Kristian Godefridus Hirschmentzel (1638-1703)
02. Orpheus in Sylvis Welleheradensibus pro Jesuli Natali gaud…
03. Die Gäste begeben sich auf ihre Zimmer
Anonymous
04. Parthia 4ta
05. Während Bruder Vinzent die letzten Noten
Josef Pekarek
06. Arie der Manda - Arie des Jora
07. Und dann hat man auch ein Ballett vorbereitet
Kristian Godefridus Hirschmentzel
08. Saltus Civilis - Saltus Rusticanus - Saltus Nobilis
Alessandro Poglietti
09. Aria Allemanda con alcuni Variazioni sopra l'Eta della Maesta Vo…
10. Wos is jetzt des fur eine Störung?
11. Hanacka, Uherska - Dajc - Ländler, Kozarady
12. No, wos sagn's dazu?
Alessandro Poglietti
13. Aria Allemanda con alcuni Variazioni… - Parte 15
14. Marenko, mein liebes Kind - Semper lusteg, numquam traurig - Hanatica Stala u…
Anonymous
15. Det Turk - Kossack - Der Wälsche
16. Vinzent, ich muss dich rugen
17. Lucille, datam coelo
18. I glaub's net
19. Ungarische Tänze - Hanakische Tänze
20. Pohreb sedlaka

CD07: Spain
Nicola Matteis jun. (um 1677-1737)
01. Chaconne (Sesostri, Re di Egitto)
02. La dia Spagnola (Don Chisciotte in Sierra Morena)
Kaiser Leopold I (1640-1705)
03. Sarabanda - Quando el Alba (Entremes en musica de Orfeo y E…
Gaspar Sanz (1640-1710)
04. Lantururu
Kaiser Leopold I
05. Por mas que he buscado - Donde vas - Moriste ninfa bella (E…
Gaspar Sanz
06. Paradertas
Kaiser Leopold I
07. Deidades del Abismo (Entremes en musica de Orfeo y Euridice)
Gaspar Sanz
08. Chacona
Giovanni Maria Pagliardi (1637-1702)
09. Comedia - Espana
Johann Adam Losy von Losinthal
10. Ciaccona
Antonio Maria Viviani?
11. Potpourri (El Prometeo)
12. A las ninas de tus osos - Si callo Anardo mi pena
Nicola Matteis jun.
13. La dia Spagnola

CD08: Venice
Antonio Vivaldi
01-04. Sonata in C major for violin, oboe and organ, RV 779
Anonymous
05. Grazie agli inganni tuoi
06. Si La gondola avere no crie
07. Son qua mia bella
08. Su l'ora del disnar partrona cara
Marco Antonio Ferro
09. Sonata for violin and theorbo
Marc'Antonio Ziani
10-11. Alma redemptoris mater
Tomaso Albinoni
12-16. Sonata for oboe and b.c.
Antonio Vivaldi
17. Augeletti, vuoi col canto
Giovanni Battista Lampugnani
18. Bel placer Saria d'un Core

CD09: Rome
Johann Caspar Kerll
01. Toccata VIII in G major
Alessandro Stradella
02. Sinfonia in D minor for Violin & b.c.
03. Passagaglia de Monseur Muffat
Alessandro Stradella
04. Toccata for Cembalo solo
Carlo Ambrogio Lonati
05. Ciaccone from XII sonate a violino solo e basso
Johann Caspar Kerll
06. Canzona VI in G major
CD10: Paris
Georg Muffat
01-07. Fasciculus II 'Laeta Poesis'
Ludwig von Radolt
08-14 Suite from 'Die Aller Treüeste …'
Johann Jakob Stupan von Ehrenstein
15-19. Ouverture in D minor
Johann Joseph Fux
20. Aria from Ouverture in C major
Rupert Ignaz Mayr
21. Gavotte from Suite in B major
Benedikt Anton Aufschnaiter
22. Bourée from Serenade in G major
23. Guigue from Serenade in G major
Johann Joseph Fux
24. Menuet from Ouverture in C major
Jean Baptiste Lully
25. Prélude pour la nuit
Johann Joseph Fux
26. Marche des Ecurieus from Ouverture in C major



Exact Audio Copy V1.0 beta 3 from 29. August 2011

EAC extraction logfile from 24. February 2015, 0:16

Ars Antiqua Austria, Gunar Letzbor / The Music of the Habsburg Empire - CD01 - Slovakia

Used drive : HL-DT-STDVDRAM GU70N Adapter: 0 ID: 0

Read mode : Secure
Utilize accurate stream : Yes
Defeat audio cache : Yes
Make use of C2 pointers : No

Read offset correction : 48
Overread into Lead-In and Lead-Out : No
Fill up missing offset samples with silence : Yes
Delete leading and trailing silent blocks : No
Null samples used in CRC calculations : Yes
Used interface : Native Win32 interface for Win NT & 2000

Used output format : User Defined Encoder
Selected bitrate : 128 kBit/s
Quality : High
Add ID3 tag : No
Command line compressor : C:\Program Files (x86)\Exact Audio Copy\Flac\flac.exe
Additional command line options : -V -8 -T "Date=%year%" -T "Genre=%genre%" %source%


TOC of the extracted CD

Track | Start | Length | Start sector | End sector
––––––––––––––––––––––––––––-
1 | 0:00.00 | 2:57.61 | 0 | 13335
2 | 2:57.61 | 0:53.54 | 13336 | 17364
3 | 3:51.40 | 3:22.63 | 17365 | 32577
4 | 7:14.28 | 1:26.54 | 32578 | 39081
5 | 8:41.07 | 1:40.05 | 39082 | 46586
6 | 10:21.12 | 3:03.12 | 46587 | 60323
7 | 13:24.24 | 8:56.20 | 60324 | 100543
8 | 22:20.44 | 1:50.44 | 100544 | 108837
9 | 24:11.13 | 0:31.00 | 108838 | 111162
10 | 24:42.13 | 6:56.70 | 111163 | 142432
11 | 31:39.08 | 2:55.52 | 142433 | 155609
12 | 34:34.60 | 0:47.28 | 155610 | 159162
13 | 35:22.13 | 1:22.64 | 159163 | 165376
14 | 36:45.02 | 3:02.55 | 165377 | 179081
15 | 39:47.57 | 3:49.50 | 179082 | 196306
16 | 43:37.32 | 4:02.23 | 196307 | 214479
17 | 47:39.55 | 6:33.37 | 214480 | 243991
18 | 54:13.17 | 2:01.41 | 243992 | 253107


Range status and errors

Selected range

Filename C:\temp\The Music of the Habsburg Empire\CD01 - Slovakia\CD01 - Slovakia.wav

Peak level 100.0 %
Extraction speed 5.1 X
Range quality 99.9 %
Test CRC 3320436A
Copy CRC 3320436A
Copy OK

No errors occurred


AccurateRip summary

Track 1 not present in database
Track 2 not present in database
Track 3 not present in database
Track 4 not present in database
Track 5 not present in database
Track 6 not present in database
Track 7 not present in database
Track 8 not present in database
Track 9 not present in database
Track 10 not present in database
Track 11 not present in database
Track 12 not present in database
Track 13 not present in database
Track 14 not present in database
Track 15 not present in database
Track 16 not present in database
Track 17 not present in database
Track 18 not present in database

None of the tracks are present in the AccurateRip database

End of status report

==== Log checksum 331AB74E60606AF46BEA1DE0CBA287201063D431E8B195B4920049D5E2879AAD ====


Exact Audio Copy V1.0 beta 3 from 29. August 2011

EAC extraction logfile from 24. February 2015, 1:39

Ars Antiqua Austria, Gunar Letzbor / The Music of the Habsburg Empire - CD02 - Slovenia

Used drive : HL-DT-STDVDRAM GU70N Adapter: 0 ID: 0

Read mode : Secure
Utilize accurate stream : Yes
Defeat audio cache : Yes
Make use of C2 pointers : No

Read offset correction : 48
Overread into Lead-In and Lead-Out : No
Fill up missing offset samples with silence : Yes
Delete leading and trailing silent blocks : No
Null samples used in CRC calculations : Yes
Used interface : Native Win32 interface for Win NT & 2000

Used output format : User Defined Encoder
Selected bitrate : 128 kBit/s
Quality : High
Add ID3 tag : No
Command line compressor : C:\Program Files (x86)\Exact Audio Copy\Flac\flac.exe
Additional command line options : -V -8 -T "Date=%year%" -T "Genre=%genre%" %source%


TOC of the extracted CD

Track | Start | Length | Start sector | End sector
––––––––––––––––––––––––––––-
1 | 0:00.00 | 5:52.62 | 0 | 26461
2 | 5:52.62 | 3:22.67 | 26462 | 41678
3 | 9:15.54 | 2:33.52 | 41679 | 53205
4 | 11:49.31 | 1:03.12 | 53206 | 57942
5 | 12:52.43 | 0:57.71 | 57943 | 62288
6 | 13:50.39 | 1:19.36 | 62289 | 68249
7 | 15:10.00 | 0:43.45 | 68250 | 71519
8 | 15:53.45 | 1:05.43 | 71520 | 76437
9 | 16:59.13 | 2:58.23 | 76438 | 89810
10 | 19:57.36 | 3:17.15 | 89811 | 104600
11 | 23:14.51 | 16:10.35 | 104601 | 177385
12 | 39:25.11 | 3:46.03 | 177386 | 194338
13 | 43:11.14 | 1:48.38 | 194339 | 202476
14 | 44:59.52 | 2:25.63 | 202477 | 213414
15 | 47:25.40 | 3:39.13 | 213415 | 229852
16 | 51:04.53 | 3:18.28 | 229853 | 244730
17 | 54:23.06 | 5:09.10 | 244731 | 267915
18 | 59:32.16 | 2:13.18 | 267916 | 277908
19 | 61:45.34 | 0:43.12 | 277909 | 281145
20 | 62:28.46 | 1:12.44 | 281146 | 286589
21 | 63:41.15 | 0:37.48 | 286590 | 289412
22 | 64:18.63 | 0:28.11 | 289413 | 291523
23 | 64:46.74 | 1:46.17 | 291524 | 299490
24 | 66:33.16 | 5:16.00 | 299491 | 323190
25 | 71:49.16 | 1:07.25 | 323191 | 328240
26 | 72:56.41 | 0:58.07 | 328241 | 332597


Range status and errors

Selected range

Filename C:\temp\The Music of the Habsburg Empire\CD02 - Slovenia\CD02 - Slovenia.wav

Peak level 98.5 %
Extraction speed 2.2 X
Range quality 100.0 %
Test CRC 767853EC
Copy CRC 767853EC
Copy OK

No errors occurred


AccurateRip summary

Track 1 not present in database
Track 2 not present in database
Track 3 not present in database
Track 4 not present in database
Track 5 not present in database
Track 6 not present in database
Track 7 not present in database
Track 8 not present in database
Track 9 not present in database
Track 10 not present in database
Track 11 not present in database
Track 12 not present in database
Track 13 not present in database
Track 14 not present in database
Track 15 not present in database
Track 16 not present in database
Track 17 not present in database
Track 18 not present in database
Track 19 not present in database
Track 20 not present in database
Track 21 not present in database
Track 22 not present in database
Track 23 not present in database
Track 24 not present in database
Track 25 not present in database
Track 26 not present in database

None of the tracks are present in the AccurateRip database

End of status report

==== Log checksum 0AD9C00D4BE652A5D9183D96034BCE2D3B97C6370FFA47F35F260C07DB743AFB ====


Exact Audio Copy V1.0 beta 3 from 29. August 2011

EAC extraction logfile from 24. February 2015, 20:56

Ars Antiqua Austria, Gunar Letzbor / The Music of the Habsburg Empire - CD03 - Hungary

Used drive : HL-DT-STDVDRAM GU70N Adapter: 0 ID: 0

Read mode : Secure
Utilize accurate stream : Yes
Defeat audio cache : Yes
Make use of C2 pointers : No

Read offset correction : 48
Overread into Lead-In and Lead-Out : No
Fill up missing offset samples with silence : Yes
Delete leading and trailing silent blocks : No
Null samples used in CRC calculations : Yes
Used interface : Native Win32 interface for Win NT & 2000

Used output format : User Defined Encoder
Selected bitrate : 128 kBit/s
Quality : High
Add ID3 tag : No
Command line compressor : C:\Program Files (x86)\Exact Audio Copy\Flac\flac.exe
Additional command line options : -V -8 -T "Date=%year%" -T "Genre=%genre%" %source%


TOC of the extracted CD

Track | Start | Length | Start sector | End sector
––––––––––––––––––––––––––––-
1 | 0:00.00 | 7:01.57 | 0 | 31631
2 | 7:01.57 | 3:03.13 | 31632 | 45369
3 | 10:04.70 | 5:43.26 | 45370 | 71120
4 | 15:48.21 | 8:49.00 | 71121 | 110795
5 | 24:37.21 | 4:00.12 | 110796 | 128807
6 | 28:37.33 | 3:49.49 | 128808 | 146031
7 | 32:27.07 | 9:48.26 | 146032 | 190157
8 | 42:15.33 | 2:19.60 | 190158 | 200642
9 | 44:35.18 | 7:58.65 | 200643 | 236557
10 | 52:34.08 | 1:01.20 | 236558 | 241152


Range status and errors

Selected range

Filename C:\temp\The Music of the Habsburg Empire\CD03 - Hungary\CD03 - Hungary.wav

Peak level 98.2 %
Extraction speed 5.0 X
Range quality 100.0 %
Test CRC C9DE20A8
Copy CRC C9DE20A8
Copy OK

No errors occurred


AccurateRip summary

Track 1 not present in database
Track 2 not present in database
Track 3 not present in database
Track 4 not present in database
Track 5 not present in database
Track 6 not present in database
Track 7 not present in database
Track 8 not present in database
Track 9 not present in database
Track 10 not present in database

None of the tracks are present in the AccurateRip database

End of status report

==== Log checksum 50961E77450EB70BF2A4538130D1B8B982C12DB16B81C1EECAE87F7F16A03D4A ====


Exact Audio Copy V1.0 beta 3 from 29. August 2011

EAC extraction logfile from 24. February 2015, 21:32

Ars Antiqua Austria, Gunar Letzbor / The Music of the Habsburg Empire - CD04 - Poland

Used drive : HL-DT-STDVDRAM GU70N Adapter: 0 ID: 0

Read mode : Secure
Utilize accurate stream : Yes
Defeat audio cache : Yes
Make use of C2 pointers : No

Read offset correction : 48
Overread into Lead-In and Lead-Out : No
Fill up missing offset samples with silence : Yes
Delete leading and trailing silent blocks : No
Null samples used in CRC calculations : Yes
Used interface : Native Win32 interface for Win NT & 2000

Used output format : User Defined Encoder
Selected bitrate : 128 kBit/s
Quality : High
Add ID3 tag : No
Command line compressor : C:\Program Files (x86)\Exact Audio Copy\Flac\flac.exe
Additional command line options : -V -8 -T "Date=%year%" -T "Genre=%genre%" %source%


TOC of the extracted CD

Track | Start | Length | Start sector | End sector
––––––––––––––––––––––––––––-
1 | 0:00.00 | 8:31.54 | 0 | 38378
2 | 8:31.54 | 3:37.25 | 38379 | 54678
3 | 12:09.04 | 10:35.10 | 54679 | 102313
4 | 22:44.14 | 2:16.55 | 102314 | 112568
5 | 25:00.69 | 3:46.15 | 112569 | 129533
6 | 28:47.09 | 2:46.63 | 129534 | 142046
7 | 31:33.72 | 3:23.21 | 142047 | 157292
8 | 34:57.18 | 2:38.25 | 157293 | 169167
9 | 37:35.43 | 3:51.27 | 169168 | 186519
10 | 41:26.70 | 3:31.40 | 186520 | 202384
11 | 44:58.35 | 4:57.01 | 202385 | 224660
12 | 49:55.36 | 5:59.63 | 224661 | 251648


Range status and errors

Selected range

Filename C:\temp\The Music of the Habsburg Empire\CD04 - Poland\CD04 - Poland.wav

Peak level 99.5 %
Extraction speed 5.0 X
Range quality 100.0 %
Test CRC F26D7ACC
Copy CRC F26D7ACC
Copy OK

No errors occurred


AccurateRip summary

Track 1 not present in database
Track 2 not present in database
Track 3 not present in database
Track 4 not present in database
Track 5 not present in database
Track 6 not present in database
Track 7 not present in database
Track 8 not present in database
Track 9 not present in database
Track 10 not present in database
Track 11 not present in database
Track 12 not present in database

None of the tracks are present in the AccurateRip database

End of status report

==== Log checksum FFB3CF2CA489675BE6EC16F3BE5A8B52F4AA7B08A650F31258A663394ED5498D ====


Exact Audio Copy V1.0 beta 3 from 29. August 2011

EAC extraction logfile from 25. February 2015, 0:09

Ars Antiqua Austria, Gunar Letzbor / The Music of the Habsburg Empire - CD05 - Bohemia

Used drive : HL-DT-STDVDRAM GU70N Adapter: 0 ID: 0

Read mode : Secure
Utilize accurate stream : Yes
Defeat audio cache : Yes
Make use of C2 pointers : No

Read offset correction : 48
Overread into Lead-In and Lead-Out : No
Fill up missing offset samples with silence : Yes
Delete leading and trailing silent blocks : No
Null samples used in CRC calculations : Yes
Used interface : Native Win32 interface for Win NT & 2000

Used output format : User Defined Encoder
Selected bitrate : 128 kBit/s
Quality : High
Add ID3 tag : No
Command line compressor : C:\Program Files (x86)\Exact Audio Copy\Flac\flac.exe
Additional command line options : -V -8 -T "Date=%year%" -T "Genre=%genre%" %source%


TOC of the extracted CD

Track | Start | Length | Start sector | End sector
––––––––––––––––––––––––––––-
1 | 0:00.00 | 1:23.22 | 0 | 6246
2 | 1:23.22 | 5:24.62 | 6247 | 30608
3 | 6:48.09 | 1:24.00 | 30609 | 36908
4 | 8:12.09 | 2:32.03 | 36909 | 48311
5 | 10:44.12 | 1:32.48 | 48312 | 55259
6 | 12:16.60 | 3:14.00 | 55260 | 69809
7 | 15:30.60 | 2:13.07 | 69810 | 79791
8 | 17:43.67 | 3:32.69 | 79792 | 95760
9 | 21:16.61 | 0:59.07 | 95761 | 100192
10 | 22:15.68 | 1:42.09 | 100193 | 107851
11 | 23:58.02 | 2:56.58 | 107852 | 121109
12 | 26:54.60 | 2:44.06 | 121110 | 133415
13 | 29:38.66 | 2:04.47 | 133416 | 142762
14 | 31:43.38 | 5:00.50 | 142763 | 165312
15 | 36:44.13 | 1:31.68 | 165313 | 172205
16 | 38:16.06 | 1:15.36 | 172206 | 177866
17 | 39:31.42 | 1:42.22 | 177867 | 185538
18 | 41:13.64 | 1:48.02 | 185539 | 193640
19 | 43:01.66 | 1:28.28 | 193641 | 200268
20 | 44:30.19 | 1:41.51 | 200269 | 207894
21 | 46:11.70 | 4:22.04 | 207895 | 227548
22 | 50:33.74 | 3:19.12 | 227549 | 242485
23 | 53:53.11 | 2:03.66 | 242486 | 251776
24 | 55:57.02 | 3:24.06 | 251777 | 267082
25 | 59:21.08 | 3:24.08 | 267083 | 282390
26 | 62:45.16 | 1:47.05 | 282391 | 290420


Range status and errors

Selected range

Filename C:\temp\The Music of the Habsburg Empire\CD05 - Bohemia\CD05 - Bohemia.wav

Peak level 99.4 %
Extraction speed 2.1 X
Range quality 100.0 %
Test CRC A5E1A585
Copy CRC A5E1A585
Copy OK

No errors occurred


AccurateRip summary

Track 1 cannot be verified as accurate (confidence 1) [1182DB8A], AccurateRip returned [7145E81E] (AR v2)
Track 2 cannot be verified as accurate (confidence 1) [DA7B4BB0], AccurateRip returned [B4CB7B2C] (AR v2)
Track 3 cannot be verified as accurate (confidence 1) [6533FD58], AccurateRip returned [A50F8BA1] (AR v2)
Track 4 cannot be verified as accurate (confidence 1) [C9620005], AccurateRip returned [C1860B65] (AR v2)
Track 5 cannot be verified as accurate (confidence 1) [AFCCF85B], AccurateRip returned [C6B0FA3A] (AR v2)
Track 6 cannot be verified as accurate (confidence 1) [39F1DBA5], AccurateRip returned [D59D8513] (AR v2)
Track 7 cannot be verified as accurate (confidence 1) [EC951853], AccurateRip returned [63E82E93] (AR v2)
Track 8 cannot be verified as accurate (confidence 1) [692F0020], AccurateRip returned [49D9D955] (AR v2)
Track 9 cannot be verified as accurate (confidence 1) [0FE3C9F4], AccurateRip returned [9D621568] (AR v2)
Track 10 cannot be verified as accurate (confidence 1) [C1C7DF97], AccurateRip returned [B970DE78] (AR v2)
Track 11 cannot be verified as accurate (confidence 1) [29CC564D], AccurateRip returned [1FB5C2FF] (AR v2)
Track 12 cannot be verified as accurate (confidence 1) [2F631A61], AccurateRip returned [52495A07] (AR v2)
Track 13 cannot be verified as accurate (confidence 1) [231E0D4A], AccurateRip returned [47E67FB4] (AR v2)
Track 14 cannot be verified as accurate (confidence 1) [D1ADC6AA], AccurateRip returned [EE5BBF73] (AR v2)
Track 15 cannot be verified as accurate (confidence 1) [1DBF1635], AccurateRip returned [022332FC] (AR v2)
Track 16 cannot be verified as accurate (confidence 1) [341CF8FA], AccurateRip returned [2A56BD05] (AR v2)
Track 17 cannot be verified as accurate (confidence 1) [96DBD0CB], AccurateRip returned [811E625D] (AR v2)
Track 18 cannot be verified as accurate (confidence 1) [40157503], AccurateRip returned [541AB2E3] (AR v2)
Track 19 cannot be verified as accurate (confidence 1) [DAEFCBB7], AccurateRip returned [64C87F57] (AR v2)
Track 20 cannot be verified as accurate (confidence 1) [E20C046B], AccurateRip returned [AF8BB347] (AR v2)
Track 21 cannot be verified as accurate (confidence 1) [DBBF9D9E], AccurateRip returned [C5EECA60] (AR v2)
Track 22 cannot be verified as accurate (confidence 1) [CDE064A1], AccurateRip returned [105C9D2D] (AR v2)
Track 23 cannot be verified as accurate (confidence 1) [665229F4], AccurateRip returned [ECB237EC] (AR v2)
Track 24 cannot be verified as accurate (confidence 1) [69AA35EC], AccurateRip returned [6BF158D4] (AR v2)
Track 25 cannot be verified as accurate (confidence 1) [99B63343], AccurateRip returned [822807AA] (AR v2)
Track 26 cannot be verified as accurate (confidence 1) [507164CF], AccurateRip returned [4A94AC6B] (AR v2)

No tracks could be verified as accurate
You may have a different pressing from the one(s) in the database

End of status report

==== Log checksum 1B9749470811BA0A252F9F08B853C33388F0DC197A2B4F47CC18769E429CAC05 ====


Gunar Letzbor, Ars Antiqua Austria - The Music of Habsburg Empire [10CDs] (2015)

Thanks to the original releaser