Tags
Language
Tags

Guy Davis - Skunkmello (2006) [Re-Up]

Posted By: Designol
Guy Davis - Skunkmello (2006) [Re-Up]

Guy Davis - Skunkmello (2006)
EAC | FLAC | Image (Cue&Log) ~ 382 Mb | Mp3 (CBR320) ~ 151 Mb | Scans ~ 118 Mb
Label: Red House Records | # RHR CD 192 | Time: 01:05:38
Contemporary Blues, Folk-Blues, Soul-Blues

Guy Davis is a smart singer/arranger, having realized sometime back that the blues world encompassed more than electric Chicago bands and Delta-style soloists. On Skunkmello, he finds joy in moving from style to style, and even improvising by throwing several things into the mix to see what will happen. The collection kicks off with two covers, the first a rewritten version of "Natural Born Eastman" followed by a take on "Goin' Down Slow." The first moves at a brisk pace, fired by Davis' gruff vocal and backed by a spry acoustic mix, while the latter delves deeply into electric barroom blues. There's fancy claw-hammer banjo on "Shaky Pudding," and banjo blues on the lazy "Po' Boy, Great Long Ways from Home." To the average blues fan, this eclectic approach adds variety and keeps the collection intriguing from beginning to the end. Purists, on the other hand, may question Davis' loose approach, combining both new and traditional elements in his blues stew. It's easy to gain the impression that he wants it both ways: a sound and lyrics that evoke elements of the past (gruff vocals, songs about shaky pudding), but that is really no more than an approximation of it. Davis deserves points for moving beyond the typical blues recording, but Skunkmello remains too dependent on a clean version of traditional blues. Only "Uncle Tom Is Dead [Milk 'n' Cookies Remix]" moves beyond tradition to emerge as something that one might call progressive blues.

Review by Ronnie D. Lankford, Jr., Allmusic.com

Guy Davis - Skunkmello (2006) [Re-Up]



Tracklist:

01. Natural Born Eas'Man (03:19)
02. Going Down Slow (08:41)
03. The Chocolate Man (03:55)
04. It Takes Love To Make A Home (05:12)
05. Shaky Pudding (03:03)
06. Po' Boy, Great Long Ways From Home (04:26)
07. Blues In The Midnight Hour (08:22)
08. Blackberry Ramble (02:42)
09. Fonza Curry (03:46)
10. Maggie Campbell Blues (03:24)
11. Skunkmello's Dance Of The Chickens (04:26)
12. Hooking Bull At The Landing (04:22)
13. Shooting Star (05:08)
14. Uncle Tom Is Dead (milk 'n' cookies remix) (04:46)


Exact Audio Copy V1.0 beta 6 from 9. April 2015

Отчёт EAC об извлечении, выполненном 26. июня 2015, 20:50

Guy Davis / Skunkmello

Дисковод: SONY CD-RW CRX230ED Adapter: 1 ID: 0

Режим чтения : Достоверность
Использование точного потока : Да
Отключение кэша аудио : Да
Использование указателей C2 : Нет

Коррекция смещения при чтении : 6
Способность читать области Lead-in и Lead-out : Нет
Заполнение пропущенных сэмплов тишиной : Да
Удаление блоков с тишиной в начале и конце : Нет
При вычислениях CRC использовались нулевые сэмплы : Да
Интерфейс : Встроенный Win32-интерфейс для Win NT/2000

Выходной формат : Внутренние WAV-операции
Формат сэмплов : 44.100 Гц; 16 бит; стерео


TOC извлечённого CD

Трек | Старт | Длительность | Начальный сектор | Конечный сектор
––––––––––––––––––––––––––––––––––-
1 | 0:00.00 | 3:19.12 | 0 | 14936
2 | 3:19.12 | 8:41.58 | 14937 | 54069
3 | 12:00.70 | 3:55.25 | 54070 | 71719
4 | 15:56.20 | 5:12.31 | 71720 | 95150
5 | 21:08.51 | 3:03.51 | 95151 | 108926
6 | 24:12.27 | 4:26.44 | 108927 | 128920
7 | 28:38.71 | 8:22.44 | 128921 | 166614
8 | 37:01.40 | 2:42.17 | 166615 | 178781
9 | 39:43.57 | 3:46.05 | 178782 | 195736
10 | 43:29.62 | 3:24.16 | 195737 | 211052
11 | 46:54.03 | 4:26.49 | 211053 | 231051
12 | 51:20.52 | 4:22.07 | 231052 | 250708
13 | 55:42.59 | 5:08.46 | 250709 | 273854
14 | 60:51.30 | 4:46.74 | 273855 | 295378


Характеристики диапазона извлечения и сообщения об ошибках

Выбранный диапазон

Имя файла F:\MusicCD\Torrent\Guy Davis\Guy Davis - Skunkmello\Guy Davis - Skunkmello.wav

Пиковый уровень 100.0 %
Скорость извлечения 6.1 X
Качество диапазона 100.0 %
CRC теста BEF08150
CRC копии BEF08150
Копирование… OK

Ошибок не произошло


AccurateRip: сводка

Трек 1 : извлечено точно (доверие 4) [6EBD94A6] (AR v2)
Трек 2 : извлечено точно (доверие 4) [65D13E7C] (AR v2)
Трек 3 : извлечено точно (доверие 4) [11166B40] (AR v2)
Трек 4 : извлечено точно (доверие 4) [F208EB87] (AR v2)
Трек 5 : извлечено точно (доверие 4) [8939451E] (AR v2)
Трек 6 : извлечено точно (доверие 4) [B08ADDAA] (AR v2)
Трек 7 : извлечено точно (доверие 4) [F9C721F1] (AR v2)
Трек 8 : извлечено точно (доверие 4) [E473BA0B] (AR v2)
Трек 9 : извлечено точно (доверие 4) [78028983] (AR v2)
Трек 10 : извлечено точно (доверие 4) [F4AA2070] (AR v2)
Трек 11 : извлечено точно (доверие 4) [96FF9577] (AR v2)
Трек 12 : извлечено точно (доверие 4) [41AD2638] (AR v2)
Трек 13 : извлечено точно (доверие 4) [45AD39F0] (AR v2)
Трек 14 : извлечено точно (доверие 4) [7035231E] (AR v2)

Все треки извлечены точно

Конец отчёта

–– CUETools DB Plugin V2.1.6

[CTDB TOCID: NL7zfeIFbdCHzI6DwQ5j6f.AFao-] found
Submit result: NL7zfeIFbdCHzI6DwQ5j6f.AFao- has been confirmed
Track | CTDB Status
1 | (2/2) Accurately ripped
2 | (2/2) Accurately ripped
3 | (2/2) Accurately ripped
4 | (2/2) Accurately ripped
5 | (2/2) Accurately ripped
6 | (2/2) Accurately ripped
7 | (2/2) Accurately ripped
8 | (2/2) Accurately ripped
9 | (2/2) Accurately ripped
10 | (2/2) Accurately ripped
11 | (2/2) Accurately ripped
12 | (2/2) Accurately ripped
13 | (2/2) Accurately ripped
14 | (2/2) Accurately ripped


==== Контрольная сумма отчёта 7A3E3CC88F4B8901B03E0AC041D583B0C8F59E1F9D1E3501BFCC38DBB49E4D37 ====

foobar2000 1.2 / Dynamic Range Meter 1.1.1
log date: 2015-07-07 18:21:38

––––––––––––––––––––––––––––––––––––––––
Analyzed: Guy Davis / Skunkmello
––––––––––––––––––––––––––––––––––––––––

DR Peak RMS Duration Track
––––––––––––––––––––––––––––––––––––––––
DR10 -0.22 dB -11.07 dB 3:19 01-Natural Born Eas'Man
DR11 0.00 dB -13.19 dB 8:42 02-Going Down Slow
DR12 -0.19 dB -14.01 dB 3:55 03-The Chocolate Man
DR9 0.00 dB -9.97 dB 5:12 04-It Takes Love To Make A Home
DR12 -0.28 dB -13.49 dB 3:04 05-Shaky Pudding
DR10 -0.19 dB -11.04 dB 4:27 06-Po' Boy, Great Long Ways From Home
DR11 0.00 dB -13.54 dB 8:23 07-Blues In The Midnight Hour
DR11 -0.24 dB -14.07 dB 2:42 08-Blackberry Ramble
DR11 -0.11 dB -13.19 dB 3:46 09-Fonza Curry
DR9 0.00 dB -10.28 dB 3:24 10-Maggie Campbell Blues
DR10 0.00 dB -11.14 dB 4:27 11-Skunkmello's Dance Of The Chickens
DR12 -0.20 dB -14.28 dB 4:22 12-Hooking Bull At The Landing
DR10 -0.34 dB -11.95 dB 5:09 13-Shooting Star
DR10 0.00 dB -11.28 dB 4:47 14-Uncle Tom Is Dead (milk 'n' cookies remix)
––––––––––––––––––––––––––––––––––––––––

Number of tracks: 14
Official DR value: DR11

Samplerate: 44100 Hz
Channels: 2
Bits per sample: 16
Bitrate: 813 kbps
Codec: FLAC
================================================================================

Guy Davis - Skunkmello (2006) [Re-Up]

Guy Davis - Skunkmello (2006) [Re-Up]

All thanks to original releaser - squirr

More interesting music in My Blog