Subcategories

Guy Davis - Call Down The Thunder (1996)

Posted By: mfrwiz
Guy Davis - Call Down The Thunder (1996)

Guy Davis - Call Down The Thunder (1996)
Loseless (Flac Image File + Cue + Log + Audiochecker Log): 304 Mb | Eac Secure Mode Rip | Mp3 (CBR 320 Kbps): 115 Mb | Covers
Audio CD (October 15, 1996) - Label: Red House - Catalog: RHR CD 89 - ASIN: B000001BB7
Blues, Acoustic Blues

Note: Recorded at The Loft, Bronxville, New York in April and May 1996.
This is Guy Davis' second release on Red House, normally a bastion of folkies (Greg Brown, Lucy Kaplansky) & Minnesota style bluegrass (Kate MacKenzie, Peter Ostroushko). Well, yes, they have Spider John Koerner, but since they picked up Paul Geremia and Guy Davis, they might be looking at cornering some of the best in acoustic blues as well. This disc of thirteen cuts, nearly fifty minutes of a variety of the good stuff, contains ten originals. The three covers are a Robert Johnson, a Mance Lipscomb and a Noah Lewis. The disc was produced by Joe Ferry and Guy Davis. It features good clean production with a minimum of audio clutter, an excellent choice of backup musicians and a tasteful handling of Davis' somewhat rough voice, which, while appropriate for the material, could have been mishandled by less skilled producers bent on making it smoother or clearer. Instead, the CD rings with the clarity of a purpose that belies his apparently young age. That purpose is supported by his considerable guitar and harmonica skills as well.

The disc starts with an original tune Georgia Jelly Roll. This Leadbelly-style 12-bar country blues could have been recorded at a juke joint. Davis plays 12 string, sings and talks during the instrumental breaks, offering advice to the dancers, requesting some liquid refreshment, etc.

I Got The Power: This slow 12 bar features Davis on 12 string slide and rack harp, with a standup bass, drums and organ. He claims in the liner notes he wrote this after playing Howlin' Wolf's guitar at a House of Blues. This song is clearly a young man's blues, full of confidence and brag.

The Robert Johnson song, When You Got A Good Friend, features Davis on vocals & slide acoustic, with bass, piano & electric guitar.

Long Train is a slow 12 bar with a long instrumental opening, Davis on harp and Abdul Wall Muhammad on solo electric guitar. This is one of the more electric blues on this disc, with alternating guitar and harp breaks–-the obligatory "train don't take my baby away" song.

Run, Sinner Run is the Mance Lipscomb song, an 8-bar country blues, about what will happen to the cocky kid in _I Got The Power_. It has some nice slide 12 string and a compelling stomping foot.

The next four songs are all Guy Davis tunes. Mama's Gonna Fix It Right is an uptempo barrelhouse piano number. _Jelly Bone Jelly_ is a country blues with Pete Seeger on banjo and 2 harps (Davis and Jimmy Recchionne) trading lead and rhythm parts during the breaks. See Me When You Can is a slow acoustic 12 bar with a nice harp break, more in a Little Walter style than some of his other harp stuff. Gee The Mule is a solo acoustic fingerpicked story song. Davis can play guitar, wrapping his best gravelly storytelling voice around this one. You can just imagine he's a seventy-something grandfather leaning back in his rocker to tell it.

Minglewood Blues is the Noah Lewis tune, a moderate 12 bar. It's an acoustic blues with a stand up bass, piano with Davis playing rack harp as well as guitar. He plays a pretty sharp harp break in this song, as well as doing some nice harp answering vocals.

Thanksgiving Day is a solo fingerpicked instrumental featuring very tasteful string snapping, harmonics, and foot tapping.

The Road Is Calling is a full band treatment of a moderate ballad written by Davis.

New Shoes is a live-in-the-studio blues shout. Just call-and-response vocals and harp, with the audience clapping along with (and providing some interesting variations to) his foot stomp. Very powerful technique that Sonny Terry (among others) used to use live, but it doesn't always translate well in the studio. Davis pulls it off beautifully, thanks in part to his talent, ability, and a good mix balancing the performer and the studio audience.


Guy Davis - Call Down The Thunder (1996)
Track Listing

01 - Georgia Jelly Roll
02 - I Got The Power
03 - When You Got A Good Friend
04 - Long Train
05 - Run Sinner Run
06 - Mama's Gonna Fix It Right
07 - Jelly Bone Jelly
08 - See Me When You Can
09 - Gee The Mule
10 - Minglewood Blues
11 - Thanksgiving Day
12 - The Road Is Calling
13 - New Shoes

Personnel

Guy Davis - vocals, 6-string, 12-string & slide guitars, harmonica, washboard
Richie Morales - drums
Abdul Wali Muhammad - electric guitar
Genovis Albright - keyboards
Jimmy Recchionne - harmonica
Joe Ferry - electric bass

Also: Pete Seeger, Harvie Swartz


Have a nice day.

Exact Audio Copy V0.99 prebeta 4 from 23. January 2008

EAC extraction logfile from 10. May 2009, 17:50

Guy Davis / Call Down The Thunder

Used drive : Pioneer BDR-203BK Adapter: 8 ID: 0

Read mode : Secure
Utilize accurate stream : Yes
Defeat audio cache : Yes
Make use of C2 pointers : No

Read offset correction : 6
Overread into Lead-In and Lead-Out : No
Fill up missing offset samples with silence : Yes
Delete leading and trailing silent blocks : No
Null samples used in CRC calculations : Yes
Used interface : Native Win32 interface for Win NT & 2000

Used output format : User Defined Encoder
Selected bitrate : 128 kBit/s
Quality : High
Add ID3 tag : No
Command line compressor : C:\Programmi\Exact Audio Copy\FLAC\FLAC.EXE
Additional command line options : -5 -V -T "ARTIST=%a" -T "TITLE=%t" -T "ALBUM=%g" -T "DATE=%y" -T "TRACKNUMBER=%n" -T "GENRE=%m" -T "COMMENT=%e" %s -o %d


TOC of the extracted CD

Track | Start | Length | Start sector | End sector
––––––––––––––––––––––––––––-
1 | 0:00.00 | 3:19.70 | 0 | 14994
2 | 3:19.70 | 4:55.42 | 14995 | 37161
3 | 8:15.37 | 3:20.00 | 37162 | 52161
4 | 11:35.37 | 4:29.40 | 52162 | 72376
5 | 16:05.02 | 3:42.23 | 72377 | 89049
6 | 19:47.25 | 2:52.12 | 89050 | 101961
7 | 22:39.37 | 3:19.25 | 101962 | 116911
8 | 25:58.62 | 3:41.48 | 116912 | 133534
9 | 29:40.35 | 3:55.22 | 133535 | 151181
10 | 33:35.57 | 3:57.63 | 151182 | 169019
11 | 37:33.45 | 2:51.02 | 169020 | 181846
12 | 40:24.47 | 5:47.13 | 181847 | 207884
13 | 46:11.60 | 3:49.37 | 207885 | 225096


Range status and errors

Selected range

Filename M:\Musica_3\=Da Condividere\Guy Davis - Call Down The Thunder (1996)\Nuova Cartella\Guy Davis - Call Down The Thunder.wav

Peak level 97.9 %
Range quality 100.0 %
Copy CRC 472494E5
Copy OK

No errors occurred

End of status report



AUDIOCHECKER v2.0 beta (build 457) - by Dester - opdester@freemail.hu
~~~~~~~~~~~~~~~~~~~~~~~~~~~~~~~~~~
-=== NON MODIFICARE QUESTO FILE! ===-

Percorso: …\Nuova Cartella

1 -=- Guy Davis - Call Down The Thunder.flac -=- CDDA (100%)

40133348