Subcategories
Tags
Language
Tags

Hermann Nitsch - Island: Eine Sinfonie In 10 Sätzen (4CD) (1980) {1998 Cortical Foundation}

Posted By: TestTickles
Hermann Nitsch - Island: Eine Sinfonie In 10 Sätzen (4CD) (1980) {1998 Cortical Foundation}

Hermann Nitsch - Island: Eine Sinfonie In 10 Sätzen (4CD) (1980) {1998 Cortical Foundation}
EAC Rip | FLAC with CUE and LOG | scans | 1.29 gb
MP3 CBR 320 kbps | RAR | 491 mb
Genre: classical

Island: Eine Sinfonie In 10 Sätzen is a 1980 album by Hermann Nitsch. It was released as a quadruple CD set in 1998 by the Cortical Foundation.

Hermann Nitsch - Island: Eine Sinfonie In 10 Sätzen (4CD) (1980) {1998 Cortical Foundation}

DISC 1
1. Eine Sinfonie in 10 Sätzen, Part I
2. Eine Sinfonie in 10 Sätzen, Part II
3. Eine Sinfonie in 10 Sätzen, Part III

DISC 2
1. Eine Sinfonie in 10 Sätzen,, Part IV
2. Eine Sinfonie in 10 Sätzen,, Part V
3. Eine Sinfonie in 10 Sätzen,n, Part VI
4. Eine Sinfonie in 10 Sätzen,, Part VII

DISC 3
1. Eine Sinfonie in 10 Sätzen, Part VIII
2. Eine Sinfonie in 10 Sätzen, Part IX
3. Eine Sinfonie in 10 Sätzen, Part X
4. Eine Sinfonie in 10 Sätzen, Part XI
5. Eine Sinfonie in 10 Sätzen, Part XII

DISC 4
1. Eine Sinfonie in 10 Sätzen, Part XIII
2. Eine Sinfonie in 10 Sätzen, Part XIV

Produced byt Gary Todd
Recorded by Björn Roth

Exact Audio Copy V1.3 from 2. September 2016

EAC extraction logfile from 12. May 2019, 7:15

Hermann Nitsch / Island: Eine Sinfonie In 10 Sätzen (Disc 1)

Used drive : TSSTcorpCDDVDW SH-222BB Adapter: 1 ID: 0

Read mode : Secure
Utilize accurate stream : Yes
Defeat audio cache : Yes
Make use of C2 pointers : No

Read offset correction : 6
Overread into Lead-In and Lead-Out : No
Fill up missing offset samples with silence : Yes
Delete leading and trailing silent blocks : No
Null samples used in CRC calculations : Yes
Used interface : Native Win32 interface for Win NT & 2000
Gap handling : Appended to previous track

Used output format : User Defined Encoder
Selected bitrate : 1024 kBit/s
Quality : High
Add ID3 tag : No
Command line compressor : C:\Program Files (x86)\Exact Audio Copy\Flac\flac.exe
Additional command line options : -8 -e -p -V -T "ARTIST=%artist%" -T "TITLE=%title%" -T "ALBUM=%albumtitle%" -T "DATE=%year%" -T "TRACKNUMBER=%tracknr%" -T "GENRE=%genre%" -T "PERFORMER=%albuminterpret%" -T "COMPOSER=%composer%" %haslyrics%–tag-from-file=LYRICS="%lyricsfile%"%haslyrics% -T "ALBUMARTIST=%albumartist%" -T "DISCNUMBER=%cdnumber%" -T "TOTALDISCS=%totalcds%" -T "TOTALTRACKS=%numtracks%" -T "COMMENT=%comment%" %source% -o %dest%


TOC of the extracted CD

Track | Start | Length | Start sector | End sector
––––––––––––––––––––––––––––-
1 | 0:00.00 | 19:57.41 | 0 | 89815
2 | 19:57.41 | 17:33.10 | 89816 | 168800
3 | 37:30.51 | 20:55.22 | 168801 | 262947


Track 1

Filename C:\cuntfist\FLAC\Hermann Nitsch - Island Eine Sinfonie In 10 Sätzen (4CD) (1980) [FLAC] {1998 Cortical Foundation}\Disc 1\01 - Eine Sinfonie in 10 Sätzen, Part I.wav

Pre-gap length 0:00:02.00

Peak level 98.8 %
Extraction speed 5.5 X
Track quality 100.0 %
Test CRC B363A3B7
Copy CRC B363A3B7
Accurately ripped (confidence 2) [F5C3E825] (AR v1)
Copy OK

Track 2

Filename C:\cuntfist\FLAC\Hermann Nitsch - Island Eine Sinfonie In 10 Sätzen (4CD) (1980) [FLAC] {1998 Cortical Foundation}\Disc 1\02 - Eine Sinfonie in 10 Sätzen, Part II.wav

Pre-gap length 0:00:01.60

Peak level 98.8 %
Extraction speed 7.3 X
Track quality 100.0 %
Test CRC 62572AA2
Copy CRC 62572AA2
Accurately ripped (confidence 2) [192AD374] (AR v1)
Copy OK

Track 3

Filename C:\cuntfist\FLAC\Hermann Nitsch - Island Eine Sinfonie In 10 Sätzen (4CD) (1980) [FLAC] {1998 Cortical Foundation}\Disc 1\03 - Eine Sinfonie in 10 Sätzen, Part III.wav

Pre-gap length 0:00:01.60

Peak level 98.8 %
Extraction speed 8.2 X
Track quality 99.9 %
Test CRC 03421BA6
Copy CRC 03421BA6
Accurately ripped (confidence 2) [2FAAA6DD] (AR v1)
Copy OK


All tracks accurately ripped

No errors occurred

End of status report

–– CUETools DB Plugin V2.1.6

[CTDB TOCID: 2Si5D0pOiWYEaCyD7L0UkFYUl.c-] found
Submit result: 2Si5D0pOiWYEaCyD7L0UkFYUl.c- has been confirmed
Track | CTDB Status
1 | (2/2) Accurately ripped
2 | (2/2) Accurately ripped
3 | (2/2) Accurately ripped


==== Log checksum B5479166F3248479674180777E440D6EC2C41EC6CD05252687B0B9AFBA067530 ====







Exact Audio Copy V1.3 from 2. September 2016

EAC extraction logfile from 12. May 2019, 9:15

Hermann Nitsch / Island: Eine Sinfonie in 10 Sätzen (Disc 2)

Used drive : TSSTcorpCDDVDW SH-222BB Adapter: 1 ID: 0

Read mode : Secure
Utilize accurate stream : Yes
Defeat audio cache : Yes
Make use of C2 pointers : No

Read offset correction : 6
Overread into Lead-In and Lead-Out : No
Fill up missing offset samples with silence : Yes
Delete leading and trailing silent blocks : No
Null samples used in CRC calculations : Yes
Used interface : Native Win32 interface for Win NT & 2000
Gap handling : Appended to previous track

Used output format : User Defined Encoder
Selected bitrate : 1024 kBit/s
Quality : High
Add ID3 tag : No
Command line compressor : C:\Program Files (x86)\Exact Audio Copy\Flac\flac.exe
Additional command line options : -8 -e -p -V -T "ARTIST=%artist%" -T "TITLE=%title%" -T "ALBUM=%albumtitle%" -T "DATE=%year%" -T "TRACKNUMBER=%tracknr%" -T "GENRE=%genre%" -T "PERFORMER=%albuminterpret%" -T "COMPOSER=%composer%" %haslyrics%–tag-from-file=LYRICS="%lyricsfile%"%haslyrics% -T "ALBUMARTIST=%albumartist%" -T "DISCNUMBER=%cdnumber%" -T "TOTALDISCS=%totalcds%" -T "TOTALTRACKS=%numtracks%" -T "COMMENT=%comment%" %source% -o %dest%


TOC of the extracted CD

Track | Start | Length | Start sector | End sector
––––––––––––––––––––––––––––-
1 | 0:00.00 | 18:06.65 | 0 | 81514
2 | 18:06.65 | 8:11.03 | 81515 | 118342
3 | 26:17.68 | 9:47.44 | 118343 | 162411
4 | 36:05.37 | 18:47.04 | 162412 | 246940


Track 1

Filename C:\cuntfist\FLAC\Hermann Nitsch - Island Eine Sinfonie In 10 Sätzen (4CD) (1980) [FLAC] {1998 Cortical Foundation}\Disc 2\01 - Eine Sinfonie in 10 Sätzen, Part IV.wav

Pre-gap length 0:00:02.00

Peak level 98.8 %
Extraction speed 5.4 X
Track quality 100.0 %
Test CRC 357687F9
Copy CRC 357687F9
Accurately ripped (confidence 1) [2788D81A] (AR v1)
Copy OK

Track 2

Filename C:\cuntfist\FLAC\Hermann Nitsch - Island Eine Sinfonie In 10 Sätzen (4CD) (1980) [FLAC] {1998 Cortical Foundation}\Disc 2\02 - Eine Sinfonie in 10 Sätzen, Part V.wav

Pre-gap length 0:00:01.60

Peak level 98.8 %
Extraction speed 5.8 X
Track quality 99.9 %
Test CRC ADE2CF9D
Copy CRC ADE2CF9D
Accurately ripped (confidence 1) [CF0CAC8C] (AR v1)
Copy OK

Track 3

Filename C:\cuntfist\FLAC\Hermann Nitsch - Island Eine Sinfonie In 10 Sätzen (4CD) (1980) [FLAC] {1998 Cortical Foundation}\Disc 2\03 - Eine Sinfonie in 10 Sätzen, Part VI.wav

Pre-gap length 0:00:01.60

Peak level 98.8 %
Extraction speed 7.3 X
Track quality 100.0 %
Test CRC 7C2915CD
Copy CRC 7C2915CD
Accurately ripped (confidence 1) [14D2F89D] (AR v1)
Copy OK

Track 4

Filename C:\cuntfist\FLAC\Hermann Nitsch - Island Eine Sinfonie In 10 Sätzen (4CD) (1980) [FLAC] {1998 Cortical Foundation}\Disc 2\04 - Eine Sinfonie in 10 Sätzen, Part VII.wav

Pre-gap length 0:00:01.60

Peak level 98.8 %
Extraction speed 8.5 X
Track quality 100.0 %
Test CRC B1A312DF
Copy CRC B1A312DF
Accurately ripped (confidence 1) [D3859D41] (AR v1)
Copy OK


All tracks accurately ripped

No errors occurred

End of status report

–– CUETools DB Plugin V2.1.6

[CTDB TOCID: 19zJworIw9D76CT0jTsvq8SnTTQ-] found
Submit result: 19zJworIw9D76CT0jTsvq8SnTTQ- has been confirmed
Track | CTDB Status
1 | (1/1) Accurately ripped
2 | (1/1) Accurately ripped
3 | (1/1) Accurately ripped
4 | (1/1) Accurately ripped


==== Log checksum F9E9A3414BC8403CBC9880EC545AC66A489A7B3533156D6ABD58DB9EC84A87D9 ====







Exact Audio Copy V1.3 from 2. September 2016

EAC extraction logfile from 12. May 2019, 11:36

Hermann Nitsch / Island: Eine Sinfonie in 10 Sätzen (Disc 3)

Used drive : TSSTcorpCDDVDW SH-222BB Adapter: 1 ID: 0

Read mode : Secure
Utilize accurate stream : Yes
Defeat audio cache : Yes
Make use of C2 pointers : No

Read offset correction : 6
Overread into Lead-In and Lead-Out : No
Fill up missing offset samples with silence : Yes
Delete leading and trailing silent blocks : No
Null samples used in CRC calculations : Yes
Used interface : Native Win32 interface for Win NT & 2000
Gap handling : Appended to previous track

Used output format : User Defined Encoder
Selected bitrate : 1024 kBit/s
Quality : High
Add ID3 tag : No
Command line compressor : C:\Program Files (x86)\Exact Audio Copy\Flac\flac.exe
Additional command line options : -8 -e -p -V -T "ARTIST=%artist%" -T "TITLE=%title%" -T "ALBUM=%albumtitle%" -T "DATE=%year%" -T "TRACKNUMBER=%tracknr%" -T "GENRE=%genre%" -T "PERFORMER=%albuminterpret%" -T "COMPOSER=%composer%" %haslyrics%–tag-from-file=LYRICS="%lyricsfile%"%haslyrics% -T "ALBUMARTIST=%albumartist%" -T "DISCNUMBER=%cdnumber%" -T "TOTALDISCS=%totalcds%" -T "TOTALTRACKS=%numtracks%" -T "COMMENT=%comment%" %source% -o %dest%


TOC of the extracted CD

Track | Start | Length | Start sector | End sector
––––––––––––––––––––––––––––-
1 | 0:00.00 | 16:43.10 | 0 | 75234
2 | 16:43.10 | 19:27.44 | 75235 | 162803
3 | 36:10.54 | 18:06.18 | 162804 | 244271
4 | 54:16.72 | 8:44.19 | 244272 | 283590
5 | 63:01.16 | 10:49.21 | 283591 | 332286


Track 1

Filename C:\cuntfist\FLAC\Hermann Nitsch - Island Eine Sinfonie In 10 Sätzen (4CD) (1980) [FLAC] {1998 Cortical Foundation}\Disc 3\01 - Eine Sinfonie in 10 Sätzen, Part VIII.wav

Pre-gap length 0:00:02.00

Peak level 98.8 %
Extraction speed 6.0 X
Track quality 100.0 %
Test CRC BCED1DBD
Copy CRC BCED1DBD
Track not present in AccurateRip database
Copy OK

Track 2

Filename C:\cuntfist\FLAC\Hermann Nitsch - Island Eine Sinfonie In 10 Sätzen (4CD) (1980) [FLAC] {1998 Cortical Foundation}\Disc 3\02 - Eine Sinfonie in 10 Sätzen, Part IX.wav

Pre-gap length 0:00:01.60

Peak level 98.8 %
Extraction speed 7.9 X
Track quality 100.0 %
Test CRC 0A57849A
Copy CRC 0A57849A
Track not present in AccurateRip database
Copy OK

Track 3

Filename C:\cuntfist\FLAC\Hermann Nitsch - Island Eine Sinfonie In 10 Sätzen (4CD) (1980) [FLAC] {1998 Cortical Foundation}\Disc 3\03 - Eine Sinfonie in 10 Sätzen, Part X.wav

Pre-gap length 0:00:01.60

Peak level 98.8 %
Extraction speed 9.3 X
Track quality 100.0 %
Test CRC 8F190D31
Copy CRC 8F190D31
Track not present in AccurateRip database
Copy OK

Track 4

Filename C:\cuntfist\FLAC\Hermann Nitsch - Island Eine Sinfonie In 10 Sätzen (4CD) (1980) [FLAC] {1998 Cortical Foundation}\Disc 3\04 - Eine Sinfonie in 10 Sätzen, Part XI.wav

Pre-gap length 0:00:01.60

Peak level 98.8 %
Extraction speed 8.7 X
Track quality 99.9 %
Test CRC 3640C8A2
Copy CRC 3640C8A2
Track not present in AccurateRip database
Copy OK

Track 5

Filename C:\cuntfist\FLAC\Hermann Nitsch - Island Eine Sinfonie In 10 Sätzen (4CD) (1980) [FLAC] {1998 Cortical Foundation}\Disc 3\05 - Eine Sinfonie in 10 Sätzen, Part XII.wav

Pre-gap length 0:00:01.60

Peak level 98.8 %
Extraction speed 10.4 X
Track quality 100.0 %
Test CRC FF641695
Copy CRC FF641695
Track not present in AccurateRip database
Copy OK


None of the tracks are present in the AccurateRip database

No errors occurred

End of status report

–– CUETools DB Plugin V2.1.6

[CTDB TOCID: h_AgRaUMdo5yg4fEQoGIoHNn0EE-] found
Submit result: h_AgRaUMdo5yg4fEQoGIoHNn0EE- has been confirmed
Track | CTDB Status
1 | (1/1) Accurately ripped
2 | (1/1) Accurately ripped
3 | (1/1) Accurately ripped
4 | (1/1) Accurately ripped
5 | (1/1) Accurately ripped


==== Log checksum 59C704BA4C1F1B052AC9B14EF3CB6E968ADA73864D5FBEE386D4A46CDCFCC2B0 ====







Exact Audio Copy V1.3 from 2. September 2016

EAC extraction logfile from 12. May 2019, 12:59

Hermann Nitsch / Island: Eine Sinfonie In 10 Sätzen (Disc 4)

Used drive : TSSTcorpCDDVDW SH-222BB Adapter: 1 ID: 0

Read mode : Secure
Utilize accurate stream : Yes
Defeat audio cache : Yes
Make use of C2 pointers : No

Read offset correction : 6
Overread into Lead-In and Lead-Out : No
Fill up missing offset samples with silence : Yes
Delete leading and trailing silent blocks : No
Null samples used in CRC calculations : Yes
Used interface : Native Win32 interface for Win NT & 2000
Gap handling : Appended to previous track

Used output format : User Defined Encoder
Selected bitrate : 1024 kBit/s
Quality : High
Add ID3 tag : No
Command line compressor : C:\Program Files (x86)\Exact Audio Copy\Flac\flac.exe
Additional command line options : -8 -e -p -V -T "ARTIST=%artist%" -T "TITLE=%title%" -T "ALBUM=%albumtitle%" -T "DATE=%year%" -T "TRACKNUMBER=%tracknr%" -T "GENRE=%genre%" -T "PERFORMER=%albuminterpret%" -T "COMPOSER=%composer%" %haslyrics%–tag-from-file=LYRICS="%lyricsfile%"%haslyrics% -T "ALBUMARTIST=%albumartist%" -T "DISCNUMBER=%cdnumber%" -T "TOTALDISCS=%totalcds%" -T "TOTALTRACKS=%numtracks%" -T "COMMENT=%comment%" %source% -o %dest%


TOC of the extracted CD

Track | Start | Length | Start sector | End sector
––––––––––––––––––––––––––––-
1 | 0:00.00 | 17:46.39 | 0 | 79988
2 | 17:46.39 | 18:05.70 | 79989 | 161433


Track 1

Filename C:\cuntfist\FLAC\Hermann Nitsch - Island Eine Sinfonie In 10 Sätzen (4CD) (1980) [FLAC] {1998 Cortical Foundation}\Disc 4\01 - Eine Sinfonie in 10 Sätzen, Part XIII.wav

Pre-gap length 0:00:02.00

Peak level 98.8 %
Extraction speed 2.2 X
Track quality 100.0 %
Test CRC EC25761B
Copy CRC EC25761B
Accurately ripped (confidence 1) [7069F193] (AR v1)
Copy OK

Track 2

Filename C:\cuntfist\FLAC\Hermann Nitsch - Island Eine Sinfonie In 10 Sätzen (4CD) (1980) [FLAC] {1998 Cortical Foundation}\Disc 4\02 - Eine Sinfonie in 10 Sätzen, Part XIV.wav

Pre-gap length 0:00:01.60

Peak level 98.8 %
Extraction speed 2.9 X
Track quality 100.0 %
Test CRC 38A20A2F
Copy CRC 38A20A2F
Accurately ripped (confidence 1) [9650AD2C] (AR v1)
Copy OK


All tracks accurately ripped

No errors occurred

End of status report

–– CUETools DB Plugin V2.1.6

[CTDB TOCID: _xYTNeiGY6huFCW_nyCXSmUxA2Q-] found
Submit result: _xYTNeiGY6huFCW_nyCXSmUxA2Q- has been confirmed
Track | CTDB Status
1 | (1/1) Accurately ripped
2 | (1/1) Accurately ripped


==== Log checksum AD83854F144C4C8E5F4BCA88192FBAF1B31D5595FFD19CDB7037322220E78D05 ====
.

Hermann Nitsch - Island: Eine Sinfonie In 10 Sätzen (4CD) (1980) {1998 Cortical Foundation}


Thank you to the original uploader.