Subcategories

H.P. Lovecraft - Two Classic Albums From HP Lovecraft (2000)

Posted By: Andi_Deris
H.P. Lovecraft - Two Classic Albums From HP Lovecraft (2000)

H.P. Lovecraft - Two Classic Albums From HP Lovecraft (2000)
EAC Rip | FLAC: Tracks+Cue+Log | 458 Mb | MP3 CBR 320 kbps | 179 Mb | Scans | 01:10:51
Collectors' Choice Music | CCM-139-2
Psychedelic Rock

Both long-out-of print studio albums from one of the best psychedelic bands of the '60's. This reissue features their first two albums for Phillips, complete with original artwork, extra liner notes and two bonus tracks, 'Anyway That You Want Me', & 'It's All Over For You'.



Track Listing

HP Lovecraft I (1967)
01. Wayfaring Stranger (02:41)
02. Let's Get Together (04:40)
03. I've Been Wrong Before (02:49)
04. The Drifter (04:15)
05. That's The Bag I'm In (01:48)
06. The White Ship (06:37)
07. Country Boy & Bleeker Street (02:40)
08. The Time Machine (02:10)
09. That's How Much I Love You, Baby (More Or Less) (03:59)
10. Gloria Patria (00:33)

HP Lovecraft II (1968)
11. Spin, Spin, Spin (03:23)
12. It's About Time (05:19)
13. Blue Jack Of Diamonds (03:09)
14. Electrollentando (06:35)
15. At The Mountains Of Madness (04:58)
16. Mobius Trip (02:44)
17. High Flying Bird (03:23)
18. Nothing's Boy (00:41)
19. Keeper Of The Keys (03:09)

bonus tracks
20. Anyway That You Want Me (02:42)
21. It's All Over For You Me (02:36)

Produced by George Badonsky

The Band

• George Edwards - vocals, acoustic guitar, electric guitar, guitarrón, bass
• Dave Michaels - vocals, organ, piano, harpsichord, clarinet
• Jerry McGeorge - bass, vocals
• Tony Cavallari - lead guitar, vocals
• Michael Tegza - drums, percussion, timpani, vocals

Notes

Tracks 1 to 10 are from HP Lovecraft I originally released in 1967.
Tracks 11 to 19 are from HP Lovecraft II originally released in 1968.
Tracks 20 and 21 are from the Mercury single 40464, which was the first thing released by the band in early 1967.

℗ 2000 Universal Music Enterprises
© 2000 Critics' Choice Video, Inc. Collectors' Choice Music is a mark of Critics' Choice Video, Inc.
Printed in the U.S.A.


Exact Audio Copy V0.99 prebeta 4 from 23. January 2008

EAC extraction logfile from 29. August 2009, 18:27

H.P. Lovecraft / Two Classic Albums from HP Lovecraft: H.P. Lovecraft/ H.P. Lovecraft II

Used drive : ATAPI DVD D DH16D3P Adapter: 0 ID: 1

Read mode : Secure
Utilize accurate stream : Yes
Defeat audio cache : Yes
Make use of C2 pointers : No

Read offset correction : 6
Overread into Lead-In and Lead-Out : No
Fill up missing offset samples with silence : Yes
Delete leading and trailing silent blocks : No
Null samples used in CRC calculations : No
Used interface : Installed external ASPI interface
Gap handling : Appended to previous track

Used output format : User Defined Encoder
Selected bitrate : 768 kBit/s
Quality : High
Add ID3 tag : No
Command line compressor : C:\Program Files\Exact Audio Copy\FLAC\FLAC.EXE
Additional command line options : -6 -V -T "ARTIST=%a" -T "TITLE=%t" -T "ALBUM=%g" -T "DATE=%y" -T "TRACKNUMBER=%n" -T "GENRE=%m" -T "COMMENT=%e" %s -o %d


TOC of the extracted CD

Track | Start | Length | Start sector | End sector
––––––––––––––––––––––––––––-
1 | 0:00.00 | 2:40.50 | 0 | 12049
2 | 2:40.50 | 4:39.35 | 12050 | 33009
3 | 7:20.10 | 2:49.20 | 33010 | 45704
4 | 10:09.30 | 4:15.12 | 45705 | 64841
5 | 14:24.42 | 1:47.68 | 64842 | 72934
6 | 16:12.35 | 6:37.10 | 72935 | 102719
7 | 22:49.45 | 2:39.42 | 102720 | 114686
8 | 25:29.12 | 2:09.35 | 114687 | 124396
9 | 27:38.47 | 3:59.05 | 124397 | 142326
10 | 31:37.52 | 0:32.45 | 142327 | 144771
11 | 32:10.22 | 3:23.00 | 144772 | 159996
12 | 35:33.22 | 5:19.15 | 159997 | 183936
13 | 40:52.37 | 3:08.65 | 183937 | 198101
14 | 44:01.27 | 6:35.05 | 198102 | 227731
15 | 50:36.32 | 4:58.28 | 227732 | 250109
16 | 55:34.60 | 2:44.30 | 250110 | 262439
17 | 58:19.15 | 3:23.22 | 262440 | 277686
18 | 61:42.37 | 0:40.45 | 277687 | 280731
19 | 62:23.07 | 3:08.48 | 280732 | 294879
20 | 65:31.55 | 2:42.02 | 294880 | 307031
21 | 68:13.57 | 2:36.10 | 307032 | 318741


Track 1

Filename E:\Music\HP Lovecraft\Two Classic Albums from HP Lovecraft; H.P. Lovecraft I, H.P. Lovecraft II\H.P. Lovecraft - Two Classic Albums from HP Lovecraft- H.P. Lovecraft, H.P. Lovecraft II - 01. Wayfaring Stranger.wav

Pre-gap length 0:00:02.00

Peak level 98.8 %
Track quality 100.0 %
Test CRC 4A2B150B
Copy CRC 4A2B150B
Track not present in AccurateRip database
Copy OK

Track 2

Filename E:\Music\HP Lovecraft\Two Classic Albums from HP Lovecraft; H.P. Lovecraft I, H.P. Lovecraft II\H.P. Lovecraft - Two Classic Albums from HP Lovecraft- H.P. Lovecraft, H.P. Lovecraft II - 02. Let's Get Together.wav

Pre-gap length 0:00:03.25

Peak level 100.0 %
Track quality 100.0 %
Test CRC 07A9B5DD
Copy CRC 07A9B5DD
Track not present in AccurateRip database
Copy OK

Track 3

Filename E:\Music\HP Lovecraft\Two Classic Albums from HP Lovecraft; H.P. Lovecraft I, H.P. Lovecraft II\H.P. Lovecraft - Two Classic Albums from HP Lovecraft- H.P. Lovecraft, H.P. Lovecraft II - 03. I've Been Wrong Before.wav

Pre-gap length 0:00:03.15

Peak level 89.0 %
Track quality 100.0 %
Test CRC 8C67EE72
Copy CRC 8C67EE72
Track not present in AccurateRip database
Copy OK

Track 4

Filename E:\Music\HP Lovecraft\Two Classic Albums from HP Lovecraft; H.P. Lovecraft I, H.P. Lovecraft II\H.P. Lovecraft - Two Classic Albums from HP Lovecraft- H.P. Lovecraft, H.P. Lovecraft II - 04. The Drifter.wav

Pre-gap length 0:00:03.18

Peak level 99.9 %
Track quality 100.0 %
Test CRC 337A77C1
Copy CRC 337A77C1
Track not present in AccurateRip database
Copy OK

Track 5

Filename E:\Music\HP Lovecraft\Two Classic Albums from HP Lovecraft; H.P. Lovecraft I, H.P. Lovecraft II\H.P. Lovecraft - Two Classic Albums from HP Lovecraft- H.P. Lovecraft, H.P. Lovecraft II - 05. That's The Bag I'm In.wav

Pre-gap length 0:00:03.17

Peak level 98.2 %
Track quality 99.9 %
Test CRC 31C6BC20
Copy CRC 31C6BC20
Track not present in AccurateRip database
Copy OK

Track 6

Filename E:\Music\HP Lovecraft\Two Classic Albums from HP Lovecraft; H.P. Lovecraft I, H.P. Lovecraft II\H.P. Lovecraft - Two Classic Albums from HP Lovecraft- H.P. Lovecraft, H.P. Lovecraft II - 06. The White Ship.wav

Pre-gap length 0:00:03.18

Peak level 99.9 %
Track quality 99.9 %
Test CRC 6C23B064
Copy CRC 6C23B064
Track not present in AccurateRip database
Copy OK

Track 7

Filename E:\Music\HP Lovecraft\Two Classic Albums from HP Lovecraft; H.P. Lovecraft I, H.P. Lovecraft II\H.P. Lovecraft - Two Classic Albums from HP Lovecraft- H.P. Lovecraft, H.P. Lovecraft II - 07. Country Boy & Bleeker Street.wav

Pre-gap length 0:00:03.18

Peak level 94.8 %
Track quality 100.0 %
Test CRC C4EF567C
Copy CRC C4EF567C
Track not present in AccurateRip database
Copy OK

Track 8

Filename E:\Music\HP Lovecraft\Two Classic Albums from HP Lovecraft; H.P. Lovecraft I, H.P. Lovecraft II\H.P. Lovecraft - Two Classic Albums from HP Lovecraft- H.P. Lovecraft, H.P. Lovecraft II - 08. The Time Machine.wav

Pre-gap length 0:00:03.17

Peak level 100.0 %
Track quality 100.0 %
Test CRC 3A56C2C5
Copy CRC 3A56C2C5
Track not present in AccurateRip database
Copy OK

Track 9

Filename E:\Music\HP Lovecraft\Two Classic Albums from HP Lovecraft; H.P. Lovecraft I, H.P. Lovecraft II\H.P. Lovecraft - Two Classic Albums from HP Lovecraft- H.P. Lovecraft, H.P. Lovecraft II - 09. That's How Much I Love You Baby (More Or Less).wa

Pre-gap length 0:00:03.17

Peak level 79.4 %
Track quality 99.9 %
Test CRC 8CD588B5
Copy CRC 8CD588B5
Track not present in AccurateRip database
Copy OK

Track 10

Filename E:\Music\HP Lovecraft\Two Classic Albums from HP Lovecraft; H.P. Lovecraft I, H.P. Lovecraft II\H.P. Lovecraft - Two Classic Albums from HP Lovecraft- H.P. Lovecraft, H.P. Lovecraft II - 10. Gloria Patria.wav

Pre-gap length 0:00:03.17

Peak level 36.3 %
Track quality 100.0 %
Test CRC 530CE357
Copy CRC 530CE357
Track not present in AccurateRip database
Copy OK

Track 11

Filename E:\Music\HP Lovecraft\Two Classic Albums from HP Lovecraft; H.P. Lovecraft I, H.P. Lovecraft II\H.P. Lovecraft - Two Classic Albums from HP Lovecraft- H.P. Lovecraft, H.P. Lovecraft II - 11. Spin, Spin, Spin.wav

Pre-gap length 0:00:04.55

Peak level 87.3 %
Track quality 100.0 %
Test CRC 16482800
Copy CRC 16482800
Track not present in AccurateRip database
Copy OK

Track 12

Filename E:\Music\HP Lovecraft\Two Classic Albums from HP Lovecraft; H.P. Lovecraft I, H.P. Lovecraft II\H.P. Lovecraft - Two Classic Albums from HP Lovecraft- H.P. Lovecraft, H.P. Lovecraft II - 12. It's About Time.wav

Pre-gap length 0:00:01.55

Peak level 100.0 %
Track quality 100.0 %
Test CRC 8B39E464
Copy CRC 8B39E464
Track not present in AccurateRip database
Copy OK

Track 13

Filename E:\Music\HP Lovecraft\Two Classic Albums from HP Lovecraft; H.P. Lovecraft I, H.P. Lovecraft II\H.P. Lovecraft - Two Classic Albums from HP Lovecraft- H.P. Lovecraft, H.P. Lovecraft II - 13. Blue Jack Of Diamonds.wav

Pre-gap length 0:00:01.65

Peak level 94.1 %
Track quality 100.0 %
Test CRC 65FAE6D0
Copy CRC 65FAE6D0
Track not present in AccurateRip database
Copy OK

Track 14

Filename E:\Music\HP Lovecraft\Two Classic Albums from HP Lovecraft; H.P. Lovecraft I, H.P. Lovecraft II\H.P. Lovecraft - Two Classic Albums from HP Lovecraft- H.P. Lovecraft, H.P. Lovecraft II - 14. Electrollentando.wav

Peak level 99.9 %
Track quality 100.0 %
Test CRC B371E877
Copy CRC B371E877
Track not present in AccurateRip database
Copy OK

Track 15

Filename E:\Music\HP Lovecraft\Two Classic Albums from HP Lovecraft; H.P. Lovecraft I, H.P. Lovecraft II\H.P. Lovecraft - Two Classic Albums from HP Lovecraft- H.P. Lovecraft, H.P. Lovecraft II - 15. At The Mountains Of Madness.wav

Peak level 100.0 %
Track quality 100.0 %
Test CRC 14CA198B
Copy CRC 14CA198B
Track not present in AccurateRip database
Copy OK

Track 16

Filename E:\Music\HP Lovecraft\Two Classic Albums from HP Lovecraft; H.P. Lovecraft I, H.P. Lovecraft II\H.P. Lovecraft - Two Classic Albums from HP Lovecraft- H.P. Lovecraft, H.P. Lovecraft II - 16. Mobius Trip.wav

Peak level 100.0 %
Track quality 100.0 %
Test CRC ED9478E4
Copy CRC ED9478E4
Track not present in AccurateRip database
Copy OK

Track 17

Filename E:\Music\HP Lovecraft\Two Classic Albums from HP Lovecraft; H.P. Lovecraft I, H.P. Lovecraft II\H.P. Lovecraft - Two Classic Albums from HP Lovecraft- H.P. Lovecraft, H.P. Lovecraft II - 17. High Flying Bird.wav

Peak level 100.0 %
Track quality 100.0 %
Test CRC 2C99F3E6
Copy CRC 2C99F3E6
Track not present in AccurateRip database
Copy OK

Track 18

Filename E:\Music\HP Lovecraft\Two Classic Albums from HP Lovecraft; H.P. Lovecraft I, H.P. Lovecraft II\H.P. Lovecraft - Two Classic Albums from HP Lovecraft- H.P. Lovecraft, H.P. Lovecraft II - 18. Nothing's Boy.wav

Pre-gap length 0:00:01.27

Peak level 86.6 %
Track quality 100.0 %
Test CRC 1145C2B8
Copy CRC 1145C2B8
Track not present in AccurateRip database
Copy OK

Track 19

Filename E:\Music\HP Lovecraft\Two Classic Albums from HP Lovecraft; H.P. Lovecraft I, H.P. Lovecraft II\H.P. Lovecraft - Two Classic Albums from HP Lovecraft- H.P. Lovecraft, H.P. Lovecraft II - 19. Keeper Of The Keys.wav

Peak level 100.0 %
Track quality 99.9 %
Test CRC AD1C8EF9
Copy CRC AD1C8EF9
Track not present in AccurateRip database
Copy OK

Track 20

Filename E:\Music\HP Lovecraft\Two Classic Albums from HP Lovecraft; H.P. Lovecraft I, H.P. Lovecraft II\H.P. Lovecraft - Two Classic Albums from HP Lovecraft- H.P. Lovecraft, H.P. Lovecraft II - 20. Anyway That You Want Me (Bonus).wav

Pre-gap length 0:00:02.55

Peak level 99.9 %
Track quality 99.9 %
Test CRC 5C486AC9
Copy CRC 5C486AC9
Track not present in AccurateRip database
Copy OK

Track 21

Filename E:\Music\HP Lovecraft\Two Classic Albums from HP Lovecraft; H.P. Lovecraft I, H.P. Lovecraft II\H.P. Lovecraft - Two Classic Albums from HP Lovecraft- H.P. Lovecraft, H.P. Lovecraft II - 21. It's All Over For You (Bonus).wav

Pre-gap length 0:00:02.55

Peak level 82.9 %
Track quality 100.0 %
Test CRC 6C0C2DF3
Copy CRC 6C0C2DF3
Track not present in AccurateRip database
Copy OK


None of the tracks are present in the AccurateRip database

No errors occurred

End of status report


Many thanks to the original uploader: sowingmyseed