Subcategories
Tags
Language
Tags

Halestorm - Into The Wild Life (2015) {Japan 1 st Press}

Posted By: popsakov
Halestorm - Into The Wild Life (2015) {Japan 1 st Press}

Halestorm - Into The Wild Life (2015) {Japan 1 st Press}
EAC Rip | FLAC (Img) + Cue + Log ~ 460 Mb | MP3 CBR320 ~ 170 Mb
Full Scans | 01:00:00 | RAR 5% Recovery
Hard Rock, Alternative Rock, Pop Rock | Atlantic / Warner Music Japan #WPCR-16417

Halestorm is an American rock band from Red Lion, Pennsylvania, consisting of lead vocalist and guitarist Lzzy Hale, her brother drummer and percussionist Arejay Hale, guitarist Joe Hottinger, and bassist Josh Smith. The group's self-titled debut album was released on April 28, 2009, through Atlantic Records. Their second album The Strange Case Of… was released on April 10, 2012. Its lead single "Love Bites (So Do I)" from that album won their first Grammy Award for Best Hard Rock/Metal Performance on February 10, 2013.

Halestorm is well known for their near non-stop touring, often performing as many as 250 shows a year. Since 2006 they have toured with many hard rock and heavy metal acts including Alter Bridge, Chevelle, Seether, Staind, Papa Roach, Trapt, Three Days Grace, Theory of a Deadman, Buckcherry, Disturbed, Shinedown, Avenged Sevenfold, Stone Sour, Hellyeah, Heaven & Hell, Evanescence, The Pretty Reckless, Starset and Bullet For My Valentine. Halestorm appeared on the first annual Rockstar Energy Drink Uproar Festival, and in October 2010 the band traveled to Japan to participate in the Loud Park Festival. Halestorm also appeared on the 2010 Taste of Chaos tour.

Into the Wild Life is the third studio album by Halestorm. The album peaked at #5 on the Billboard 200 Albums Chart, making it their highest charting release to date in the US.

~ Wiki

The third studio long-player from the Grammy Award-winning hard rockers led by powerhouse vocalist Lzzy Hale, Into the Wild Life doubles down on the more radio-friendly elements that were introduced on 2012's Strange Case Of…, but it also plays fast and loose with the formula, pouring as many different stylistic elements as it can into each of its 12 (15 if you pick up the deluxe version) cuts. As per usual, Hale's tornadic vocals lead the charge, and she lays down some of her best work to date on stand-out cuts like "I Am the Fire," "Gonna Get Mine," the heartfelt ballad "Dear Daughter," and the blistering, aptly named "Mayhem," the latter of which eschews some of the more traditional hard rock Halestorm tropes (of which there are many) in favor of a nervy blast of pure punk-metal malevolence. Slicker and a tad tamer than previous outings, Halestorm can still put the pedal to the metal, as evidenced by the bruising, vaguely Sabbath-esque "Sick Individual," the meaty, electro-kissed opener "Scream," and the aforementioned "Mayhem" – they even offer up an unapologetically cheesy and surprisingly ballsy arena rock anthem with "I Like It Heavy" (think an agitated, juiced-up version of Bob Seger's "Old Time Rock and Roll"). That said, when Into the Wild Life goes flaccid it goes all the way limp, and songs like the "Is This Love"-era Whitesnake-inspired "Bad Girls World" and the new country-ready "What Sober Couldn't Say" take a lot of wind out of Into the Wild Life's sails, but the band is undeniably tight and flush with ideas, and Hale is such a force of nature that the occasional foray into AOR snooze-ville can be forgiven.

~ James Christopher Monger, All Music

***************

Halestorm - Into The Wild Life (2015) {Japan 1 st Press}

Track List:

01. Scream [04:03]
02. I Am the Fire [03:38]
03. Sick Individual [03:28]
04. Amen [02:59]
05. Dear Daughter [04:47]
06. New Modern Love [03:39]
07. Mayhem [03:37]
08. Bad Girl's World [05:09]
09. Gonna Get Mine [02:58]
10. The Reckoning [03:45]
11. Apocalyptic [03:14]
12. What Sober Couldn't Say [03:33]
13. I Like it Heavy [04:56]
Bonus Tracks
14. Jump the Gun [03:09]
15. Unapolagetic [04:11]
16. Drunk Pretty [03:03]

Exact Audio Copy V1.1 from 23. June 2015

EAC extraction logfile from 3. March 2016, 21:41

Halestorm / Into the Wild Life (WPCR16417)

Used drive : PIONEER BD-RW BDR-209D Adapter: 0 ID: 5

Read mode : Secure
Utilize accurate stream : Yes
Defeat audio cache : Yes
Make use of C2 pointers : No

Read offset correction : 667
Overread into Lead-In and Lead-Out : No
Fill up missing offset samples with silence : Yes
Delete leading and trailing silent blocks : No
Null samples used in CRC calculations : Yes
Used interface : Installed external ASPI interface

Used output format : User Defined Encoder
Selected bitrate : 768 kBit/s
Quality : High
Add ID3 tag : No
Command line compressor : C:\Program Files (x86)\Exact Audio Copy\FLAC\FLAC.EXE
Additional command line options : -6 -V -T "ARTIST=%artist%" -T "TITLE=%title%" -T "ALBUM=%albumtitle%" -T "DATE=%year%" -T "TRACKNUMBER=%tracknr%" -T "GENRE=%genre%" -T "COMMENT=%comment%" -T "BAND=%albuminterpret%" -T "ALBUMARTIST=%albuminterpret%" -T "COMPOSER=%composer%" %haslyrics%–tag-from-file=LYRICS="%lyricsfile%"%haslyrics% -T "DISCNUMBER=%cdnumber%" -T "TOTALDISCS=%totalcds%" -T "TOTALTRACKS=%numtracks%" %hascover%–picture="%coverfile%"%hascover% %source% -o %dest%


TOC of the extracted CD

Track | Start | Length | Start sector | End sector
––––––––––––––––––––––––––––-
1 | 0:00.00 | 4:02.11 | 0 | 18160
2 | 4:02.11 | 3:37.13 | 18161 | 34448
3 | 7:39.24 | 3:27.50 | 34449 | 50023
4 | 11:06.74 | 2:58.17 | 50024 | 63390
5 | 14:05.16 | 4:46.06 | 63391 | 84846
6 | 18:51.22 | 3:38.01 | 84847 | 101197
7 | 22:29.23 | 3:36.57 | 101198 | 117454
8 | 26:06.05 | 5:08.04 | 117455 | 140558
9 | 31:14.09 | 2:57.32 | 140559 | 153865
10 | 34:11.41 | 3:44.36 | 153866 | 170701
11 | 37:56.02 | 3:13.42 | 170702 | 185218
12 | 41:09.44 | 3:32.72 | 185219 | 201190
13 | 44:42.41 | 4:55.37 | 201191 | 223352
14 | 49:38.03 | 3:08.43 | 223353 | 237495
15 | 52:46.46 | 4:10.34 | 237496 | 256279
16 | 56:57.05 | 3:02.07 | 256280 | 269936


Range status and errors

Selected range

Filename E:\MUSIC\Halestorm - Into the Wild Life (WPCR16417).wav

Peak level 99.5 %
Extraction speed 7.7 X
Range quality 100.0 %
Test CRC 2078A991
Copy CRC 2078A991
Copy OK

No errors occurred


AccurateRip summary

Track 1 accurately ripped (confidence 2) [80E3D11F] (AR v2)
Track 2 accurately ripped (confidence 2) [C76BE670] (AR v2)
Track 3 accurately ripped (confidence 2) [8C67B267] (AR v2)
Track 4 accurately ripped (confidence 2) [452ECA7C] (AR v2)
Track 5 accurately ripped (confidence 2) [176FFAE3] (AR v2)
Track 6 accurately ripped (confidence 2) [A6FF7029] (AR v2)
Track 7 accurately ripped (confidence 2) [909A0AB0] (AR v2)
Track 8 accurately ripped (confidence 2) [974ECB61] (AR v2)
Track 9 accurately ripped (confidence 2) [F7F81413] (AR v2)
Track 10 accurately ripped (confidence 2) [E04A778C] (AR v2)
Track 11 accurately ripped (confidence 2) [9AA37955] (AR v2)
Track 12 accurately ripped (confidence 2) [F93D73E8] (AR v2)
Track 13 accurately ripped (confidence 2) [12D86F78] (AR v2)
Track 14 accurately ripped (confidence 2) [732C397E] (AR v2)
Track 15 accurately ripped (confidence 2) [3F14C74F] (AR v2)
Track 16 accurately ripped (confidence 2) [D29F3815] (AR v2)

All tracks accurately ripped

End of status report

==== Log checksum F12E7CC14D48A15F42B6F50D2A11A3F198B77AB5EFB0F6B3D04C13492C352C15 ====

[CUETools log; Date: 19.10.2019 16:20:54; Version: 2.1.6]
[CTDB TOCID: V2iv.Q2hLdHrxhqjXzgfKXxF5UM-] found.
Track | CTDB Status
1 | (16/16) Accurately ripped
2 | (16/16) Accurately ripped
3 | (16/16) Accurately ripped
4 | (16/16) Accurately ripped
5 | (16/16) Accurately ripped
6 | (16/16) Accurately ripped
7 | (16/16) Accurately ripped
8 | (16/16) Accurately ripped
9 | (16/16) Accurately ripped
10 | (16/16) Accurately ripped
11 | (16/16) Accurately ripped
12 | (16/16) Accurately ripped
13 | (16/16) Accurately ripped
14 | (16/16) Accurately ripped
15 | (16/16) Accurately ripped
16 | (16/16) Accurately ripped
[AccurateRip ID: 00233820-01a6da90-ef0e0f10] found.
Track [ CRC | V2 ] Status
01 [74c9e4d7|80e3d11f] (0+4/4) Accurately ripped
02 [648480b5|c76be670] (0+4/4) Accurately ripped
03 [1a4ea42a|8c67b267] (0+4/4) Accurately ripped
04 [8da12543|452eca7c] (0+4/4) Accurately ripped
05 [16dc3aed|176ffae3] (0+4/4) Accurately ripped
06 [18a30300|a6ff7029] (0+4/4) Accurately ripped
07 [b5e17047|909a0ab0] (0+4/4) Accurately ripped
08 [cfb42d88|974ecb61] (0+4/4) Accurately ripped
09 [a128a45f|f7f81413] (0+4/4) Accurately ripped
10 [bc236cc7|e04a778c] (0+4/4) Accurately ripped
11 [79b3f14d|9aa37955] (0+4/4) Accurately ripped
12 [cafac59f|f93d73e8] (0+4/4) Accurately ripped
13 [2cc048b8|12d86f78] (0+4/4) Accurately ripped
14 [b116c364|732c397e] (0+4/4) Accurately ripped
15 [3a72153d|3f14c74f] (0+4/4) Accurately ripped
16 [b24db66a|d29f3815] (0+4/4) Accurately ripped

Track Peak [ CRC32 ] [W/O NULL] [ LOG ]
– 99,5 [2078A991] [7319F28E] CRC32
01 99,5 [8FE43C5D] [5DA811AE]
02 99,5 [32191C46] [8C84B3EA]
03 99,5 [72DDEB40] [A41B62BF]
04 99,5 [45125260] [A54832DD]
05 99,5 [5DBF53DE] [726BD2CC]
06 99,5 [B6201FB4] [3EF6782B]
07 99,5 [98101931] [9806C81D]
08 99,5 [3A7EB1D7] [C9560BCB]
09 99,5 [8BFE9675] [DCC24976]
10 99,5 [C6143EF5] [CBE7AD8B]
11 99,5 [BB9E9657] [5D926256]
12 99,5 [5105EAC4] [E1B55F93]
13 99,5 [017EFB1E] [C5F6B376]
14 99,5 [8108BCFE] [7D500933]
15 99,5 [19034083] [AF2C9312]
16 99,5 [58E28343] [82F7870A]

Halestorm - Into The Wild Life (2015) {Japan 1 st Press}


All thanks go to RD

>>> My Blog <<<

DOWNLOAD: