Subcategories

Konrad Junghanel, Saarbrucken State Theater Orchestra - Handel: Agrippina (2012) [Blu-Ray]

Posted By: Vilboa
Konrad Junghanel, Saarbrucken State Theater Orchestra - Handel: Agrippina (2012) [Blu-Ray]

Konrad Junghänel, Saarbrücken State Theater Orchestra - Handel: Agrippina (2012) [Blu-Ray]
BluRay | BDMV | MPEG-4 AVC Video / 24639 kbps / 1080i / 29,970 fps | 164 min | 38.0 Gb
Audio1: Italiano LPCM 2.0 / 24-bit | Audio2: DTS-HD MA 5.1 / 48 kHz / 4348 kbps / 24-bit
––––––
BluRay-rip | AVC | MKV 1920x1080 / 6215 kbps / 29,97 fps | 164 min | 8,89 Gb
Audio: Italiano / DTS / 6ch / 48.0 KHz / 24 bits
Classical | Entertainment One | Sub: English, French, German, Italian, Spanish

Recorded live at the Saarbrücken State Theatre in 2008, this spectacular new production of Handel's Agrippina has received critical recognition, with reviewer Frank Herkommer of opernnetz.de commenting: "Producer Peter Lund with his celebrated production of Agrippina demonstrates his love with detail, focused on directing the characters, with exuberant fantasy and creativity the Berlin director sparks brilliant Handel fireworks! He succeeds in unleashing an effervescent joy of playing, which puts an irresistible spell on the viewer". Featuring a cast of renowned baroque specialists under the direction of Konrad Junghänel, one of the leading conductors in the array of early music.

Cast:
Agrippina - Susanne Geb
Claudio - Hiroshi Matsui
Nerone - Judith Braun
Poppea - Elizabeth Wiles
Ottone - David Cordier
Pallante - Patrick Simper
Narciso - Steve Wächter
Lesbo - Guido Baehr
Saarbrücken State Theater Orchestra
Conductor - Konrad Junghänel


Disc Title: AGRIPPINA
Disc Size: 40 896 214 951 bytes
Protection: AACS
BD-Java: No
Playlist: 00002.MPLS
Size: 40 723 046 400 bytes
Length: 2:44:00.897
Total Bitrate: 33,11 Mbps
Video: MPEG-4 AVC Video / 24639 kbps / 1080i / 29,970 fps / 16:9 / High Profile 4.1
Audio: Italian / LPCM Audio / 2.0 / 48 kHz / 2304 kbps / 24-bit
Audio: Italian / DTS-HD Master Audio / 5.1 / 48 kHz / 4348 kbps / 24-bit (DTS Core: 5.1 / 48 kHz / 1509 kbps / 24-bit)
Subtitle: English / 13,633 kbps
Subtitle: French / 15,172 kbps
Subtitle: German / 15,074 kbps
Subtitle: Italian / 14,527 kbps
Subtitle: Spanish / 16,067 kbps


General
Unique ID : 207421407121820249429173523668947494320 (0x9C0BE8EFBFD636028520461FAFF0E5B0)
Complete name : C:\Agrippina.mkv
Format : Matroska
Format version : Version 2
File size : 8.89 GiB
Duration : 2h 44mn
Overall bit rate : 7 762 Kbps
Movie name : Agrippina
Encoded date : UTC 2018-04-26 07:30:58
Writing application : DVDFab 9.1.6.8
Writing library : libebml v0.7.8 + libmatroska v0.8.1

Video
ID : 1
Format : AVC
Format/Info : Advanced Video Codec
Format profile : High@L4.1
Format settings, CABAC : Yes
Format settings, ReFrames : 2 frames
Codec ID : V_MPEG4/ISO/AVC
Duration : 2h 44mn
Bit rate : 6 215 Kbps
Width : 1 920 pixels
Height : 1 080 pixels
Display aspect ratio : 16:9
Frame rate mode : Constant
Frame rate : 29.970 fps
Color space : YUV
Chroma subsampling : 4:2:0
Bit depth : 8 bits
Scan type : Progressive
Bits/(Pixel*Frame) : 0.100
Stream size : 6.99 GiB (79%)
Writing library : x264 core 142
Encoding settings : cabac=1 / ref=1 / deblock=1:-1:-1 / analyse=0x3:0 / me=hex / subme=5 / psy=0 / mixed_ref=0 / me_range=16 / chroma_me=1 / trellis=0 / 8x8dct=1 / cqm=0 / deadzone=21,11 / fast_pskip=1 / chroma_qp_offset=0 / threads=8 / lookahead_threads=2 / sliced_threads=0 / nr=0 / decimate=1 / interlaced=0 / bluray_compat=0 / constrained_intra=0 / bframes=2 / b_pyramid=0 / b_adapt=1 / b_bias=0 / direct=1 / weightb=1 / open_gop=0 / weightp=0 / keyint=24 / keyint_min=13 / scenecut=40 / intra_refresh=0 / rc=abr / mbtree=0 / bitrate=6215 / ratetol=1.0 / qcomp=0.60 / qpmin=0 / qpmax=69 / qpstep=4 / ip_ratio=1.40 / pb_ratio=1.30 / aq=1:1.00
Default : Yes
Forced : No
Color primaries : BT.709
Transfer characteristics : BT.709
Matrix coefficients : BT.709
Color range : Limited

Audio
ID : 2
Format : DTS
Format/Info : Digital Theater Systems
Mode : 16
Format settings, Endianness : Big
Codec ID : A_DTS
Duration : 2h 44mn
Bit rate mode : Constant
Bit rate : 1 509 Kbps
Channel(s) : 6 channels
Channel positions : Front: L C R, Side: L R, LFE
Sampling rate : 48.0 KHz
Bit depth : 24 bits
Compression mode : Lossy
Stream size : 1.73 GiB (19%)
Language : Italian
Default : Yes
Forced : No

Text #1
ID : 3
Format : VobSub
Codec ID : S_VOBSUB
Codec ID/Info : The same subtitle format used on DVDs
Language : English
Default : Yes
Forced : No

Text #2
ID : 4
Format : VobSub
Codec ID : S_VOBSUB
Codec ID/Info : The same subtitle format used on DVDs
Language : French
Default : No
Forced : No

Text #3
ID : 5
Format : VobSub
Codec ID : S_VOBSUB
Codec ID/Info : The same subtitle format used on DVDs
Language : German
Default : No
Forced : No

Text #4
ID : 6
Format : VobSub
Codec ID : S_VOBSUB
Codec ID/Info : The same subtitle format used on DVDs
Language : Italian
Default : No
Forced : No

Text #5
ID : 7
Format : VobSub
Codec ID : S_VOBSUB
Codec ID/Info : The same subtitle format used on DVDs
Language : Spanish
Default : No
Forced : No

Menu
00:00:00.000 : en:Chapter 01
00:02:11.531 : en:Chapter 02
00:11:00.226 : en:Chapter 03
00:11:33.793 : en:Chapter 04
00:16:56.515 : en:Chapter 05
00:17:11.096 : en:Chapter 06
00:22:06.692 : en:Chapter 07
00:25:28.560 : en:Chapter 08
00:28:28.773 : en:Chapter 09
00:29:36.474 : en:Chapter 10
00:31:52.343 : en:Chapter 11
00:34:06.444 : en:Chapter 12
00:37:05.556 : en:Chapter 13
00:38:13.491 : en:Chapter 14
00:44:21.492 : en:Chapter 15
00:50:45.542 : en:Chapter 16
00:51:54.811 : en:Chapter 17
00:53:02.212 : en:Chapter 18
00:58:03.613 : en:Chapter 19
01:08:01.343 : en:Chapter 20
01:09:12.948 : en:Chapter 21
01:15:35.163 : en:Chapter 22
01:19:37.239 : en:Chapter 23
01:21:22.777 : en:Chapter 24
01:23:29.371 : en:Chapter 25
01:26:39.994 : en:Chapter 26
01:33:14.622 : en:Chapter 27
01:40:00.761 : en:Chapter 28
01:46:46.533 : en:Chapter 29
01:54:05.238 : en:Chapter 30
01:55:16.709 : en:Chapter 31
01:57:05.251 : en:Chapter 32
02:01:30.049 : en:Chapter 33
02:06:13.165 : en:Chapter 34
02:11:12.231 : en:Chapter 35
02:11:48.834 : en:Chapter 36
02:14:38.003 : en:Chapter 37
02:17:46.358 : en:Chapter 38
02:18:13.518 : en:Chapter 39
02:19:29.094 : en:Chapter 40
02:19:57.822 : en:Chapter 41
02:21:43.094 : en:Chapter 42
02:22:28.740 : en:Chapter 43
02:26:31.516 : en:Chapter 44
02:30:08.399 : en:Chapter 45
02:33:07.111 : en:Chapter 46
02:35:52.543 : en:Chapter 47
02:36:59.009 : en:Chapter 48

All screenshots taken from BDRip

Konrad Junghanel, Saarbrucken State Theater Orchestra - Handel: Agrippina (2012) [Blu-Ray]