Tags
Language
Tags

Hans-Christoph Rademann, Dresdner Barockorchester, Dresdner Kammerchor - Heinichen: Missa Nr. 9; Zelenka: Te Deum (2000)

Posted By: ArlegZ
Hans-Christoph Rademann, Dresdner Barockorchester, Dresdner Kammerchor - Heinichen: Missa Nr. 9; Zelenka: Te Deum (2000)

Hans-Christoph Rademann, Dresdner Barockorchester, Dresdner Kammerchor - Heinichen: Missa Nr. 9; Zelenka: Te Deum (2000)
EAC | FLAC | Image (Cue & Log) ~ 345 Mb | Total time: 73:10 | Scans included
Classical | Label: Carus | # 83.148 | Recorded: 1998

Heinichen’s Mass employs especially the capabilities of the brass to achieve a festive majesty in sound. A four-voiced trumpet choir in combination with the double choir layout lend Zelenka’s Te Deum a festive character. Hans-Christoph Rademann brings choir, orchestra and soloists to their highest level of performance.

Performer:
Heiki Hallaschka, soprano
Martina Lins-Reuben, soprano
Patrick van Goethem, alto
Marcus Ullmann, tenor
Jochen Kupfer, bass
Dresdner Kammerchor
Dresdner Barockorchester
Hans-Christoph Rademann, conductor

Track List:
Jan Dismas Zelenka (1679–1745)
Te Deum for soloists, double chorus, instruments & continuo in D major, ZWV 146
01. Te Deum laudamus
02. Tu rex gloriae
03. Tu ad liberandum
04. Tu ad dexteram Dei sedes
05. Judex crederis
06. Aeterna fac
07. Intonatio: Salvum fac
08. Et rege eos
09. Per singulos dies
10. In te, Domine
Johann David Heinichen (1683-1729)
Missa No. 9 in D major for chorus, orchestra & continuo
11. Kyrie eleison
12. Christe eleison / Kyrie eleison
13. Gloria in excelsis
14. Domine Deus
15. Qui tollis
16. Quoniam
17. Concertino für Fl, 2 Ob, Str, Bc
18. Credo
19. Crucifixus
20. Et resurrexit
21. Sanctus
22. Benedictus
23. Osanna in excelsis
24. Agnus Dei
25. Agnus Dei
26. Dona nobis pacem


Exact Audio Copy V1.5 from 20. February 2020

EAC extraction logfile from 4. March 2021, 20:17

Heike Hallaschka, Martina Lins-Reuber, Patrick van Goethem, Marcus Ullmann, Jochen Kupfer / Heinichen - Missa Nr. 9 · Zelenka - Te Deum

Used drive : ATAPI iHAS124 F Adapter: 1 ID: 0

Read mode : Secure
Utilize accurate stream : Yes
Defeat audio cache : Yes
Make use of C2 pointers : No

Read offset correction : 6
Overread into Lead-In and Lead-Out : No
Fill up missing offset samples with silence : Yes
Delete leading and trailing silent blocks : No
Null samples used in CRC calculations : Yes
Used interface : Native Win32 interface for Win NT & 2000

Used output format : User Defined Encoder
Selected bitrate : 1024 kBit/s
Quality : High
Add ID3 tag : No
Command line compressor : C:\Program Files (x86)\Exact Audio Copy\FLAC\FLAC.EXE
Additional command line options : -6 -V -T "ARTIST=%artist%" -T "TITLE=%title%" -T "ALBUM=%albumtitle%" -T "DATE=%year%" -T "TRACKNUMBER=%tracknr%" -T "GENRE=%genre%" -T "COMMENT=%comment%" -T "BAND=%albuminterpret%" -T "ALBUMARTIST=%albuminterpret%" -T "COMPOSER=%composer%" %haslyrics%–tag-from-file=LYRICS="%lyricsfile%"%haslyrics% -T "DISCNUMBER=%cdnumber%" -T "TOTALDISCS=%totalcds%" -T "TOTALTRACKS=%numtracks%" %hascover%–picture="%coverfile%"%hascover% %source% -o %dest%


TOC of the extracted CD

Track | Start | Length | Start sector | End sector
––––––––––––––––––––––––––––-
1 | 0:00.00 | 5:37.47 | 0 | 25321
2 | 5:37.47 | 2:48.00 | 25322 | 37921
3 | 8:25.47 | 5:01.05 | 37922 | 60501
4 | 13:26.52 | 1:30.63 | 60502 | 67314
5 | 14:57.40 | 2:20.07 | 67315 | 77821
6 | 17:17.47 | 1:47.05 | 77822 | 85851
7 | 19:04.52 | 0:32.48 | 85852 | 88299
8 | 19:37.25 | 1:42.60 | 88300 | 96009
9 | 21:20.10 | 4:37.57 | 96010 | 116841
10 | 25:57.67 | 2:04.55 | 116842 | 126196
11 | 28:02.47 | 3:18.43 | 126197 | 141089
12 | 31:21.15 | 2:33.17 | 141090 | 152581
13 | 33:54.32 | 2:15.53 | 152582 | 162759
14 | 36:10.10 | 1:54.52 | 162760 | 171361
15 | 38:04.62 | 3:35.58 | 171362 | 187544
16 | 41:40.45 | 1:58.47 | 187545 | 196441
17 | 43:39.17 | 3:49.48 | 196442 | 213664
18 | 47:28.65 | 2:28.67 | 213665 | 224831
19 | 49:57.57 | 3:31.00 | 224832 | 240656
20 | 53:28.57 | 4:05.10 | 240657 | 259041
21 | 57:33.67 | 2:54.10 | 259042 | 272101
22 | 60:28.02 | 2:08.40 | 272102 | 281741
23 | 62:36.42 | 1:48.10 | 281742 | 289851
24 | 64:24.52 | 2:55.25 | 289852 | 303001
25 | 67:20.02 | 2:28.05 | 303002 | 314106
26 | 69:48.07 | 3:20.25 | 314107 | 329131


Range status and errors

Selected range

Filename C:\EACRip\VARIOUS\Heinichen - Missa Nr. 9 & Zelenka - Te Deum (Hans-Christoph Rademann) (2000)\Heinichen - Missa Nr. 9 & Zelenka - Te Deum - Hans-Christoph Rademann.wav

Peak level 100.0 %
Extraction speed 9.2 X
Range quality 100.0 %
Test CRC 02A82F3D
Copy CRC 02A82F3D
Copy OK

No errors occurred


AccurateRip summary

Track 1 accurately ripped (confidence 12) [3899AC84] (AR v2)
Track 2 accurately ripped (confidence 12) [4221B229] (AR v2)
Track 3 accurately ripped (confidence 12) [DEBEEC7D] (AR v2)
Track 4 accurately ripped (confidence 12) [177AEA2B] (AR v2)
Track 5 accurately ripped (confidence 12) [75145736] (AR v2)
Track 6 accurately ripped (confidence 12) [3D34AAF9] (AR v2)
Track 7 accurately ripped (confidence 12) [8E60BF9C] (AR v2)
Track 8 accurately ripped (confidence 12) [EB557A24] (AR v2)
Track 9 accurately ripped (confidence 12) [CDF39EA9] (AR v2)
Track 10 accurately ripped (confidence 12) [55A0394D] (AR v2)
Track 11 accurately ripped (confidence 12) [10549529] (AR v2)
Track 12 accurately ripped (confidence 12) [811633DA] (AR v2)
Track 13 accurately ripped (confidence 12) [5EEACEE9] (AR v2)
Track 14 accurately ripped (confidence 11) [0FCFF752] (AR v2)
Track 15 accurately ripped (confidence 12) [FA9B9139] (AR v2)
Track 16 accurately ripped (confidence 12) [9AA5C7B1] (AR v2)
Track 17 accurately ripped (confidence 12) [B3C2F494] (AR v2)
Track 18 accurately ripped (confidence 12) [66DAC8AF] (AR v2)
Track 19 accurately ripped (confidence 12) [E5BF5135] (AR v2)
Track 20 accurately ripped (confidence 12) [E9A3A606] (AR v2)
Track 21 accurately ripped (confidence 12) [60B5FC35] (AR v2)
Track 22 accurately ripped (confidence 12) [0BD79516] (AR v2)
Track 23 accurately ripped (confidence 12) [CD57C661] (AR v2)
Track 24 accurately ripped (confidence 12) [8E8E6B3A] (AR v2)
Track 25 accurately ripped (confidence 12) [B88AD80F] (AR v2)
Track 26 accurately ripped (confidence 12) [AC52863B] (AR v2)

All tracks accurately ripped

End of status report

–– CUETools DB Plugin V2.1.6

[CTDB TOCID: RPB2QVD98Z81EpOyEIQWWWlhKLI-] found
Submit result: RPB2QVD98Z81EpOyEIQWWWlhKLI- has been confirmed
Track | CTDB Status
1 | (30/31) Accurately ripped
2 | (30/31) Accurately ripped
3 | (30/31) Accurately ripped
4 | (30/31) Accurately ripped
5 | (30/31) Accurately ripped
6 | (30/31) Accurately ripped
7 | (30/31) Accurately ripped
8 | (30/31) Accurately ripped
9 | (30/31) Accurately ripped
10 | (30/31) Accurately ripped
11 | (30/31) Accurately ripped
12 | (30/31) Accurately ripped
13 | (30/31) Accurately ripped
14 | (30/31) Accurately ripped
15 | (30/31) Accurately ripped
16 | (30/31) Accurately ripped
17 | (30/31) Accurately ripped
18 | (29/31) Accurately ripped
19 | (29/31) Accurately ripped
20 | (30/31) Accurately ripped
21 | (30/31) Accurately ripped
22 | (30/31) Accurately ripped
23 | (30/31) Accurately ripped
24 | (30/31) Accurately ripped
25 | (30/31) Accurately ripped
26 | (30/31) Accurately ripped


==== Log checksum B098AAE9E4D6C0ABC7D248F10F542E1A67F6032E8C0759C03CEC9A068BB8A482 ====

Hans-Christoph Rademann, Dresdner Barockorchester, Dresdner Kammerchor - Heinichen: Missa Nr. 9; Zelenka: Te Deum (2000)

Thanks to the original releaser