Tags
Language
Tags

Harry Christophers, Handel and Haydn Society - Haydn: Symphony No. 100; Nelson Mass (2020)

Posted By: ArlegZ
Harry Christophers, Handel and Haydn Society - Haydn: Symphony No. 100; Nelson Mass (2020)

Harry Christophers, Handel and Haydn Society - Haydn: Symphony No. 100; Nelson Mass (2020)
EAC | FLAC | Image (Cue & Log) ~ 290 Mb | Total time: 64:47 | Scans included
Classical | Label: Coro | # COR16181 | Recorded: 2020

Experience two grand classics, alive with all the excitement and verve of their very first performances. Thrill to one of Haydn’s masterful ‘London’ symphonies that wowed England’s capital – the smash hit ‘Military’, so-called for intense depictions of the clash of arms and ferocious roar of war. In the epic Nelson Mass Handel and Haydn Society's magnificent chorus and soloists join the orchestra in this homage to the heroic admiral who helped to vanquish Napoleon.

Performer:
Mary Bevan, soprano
Catherine Wyn-Rogers, mezzo-soprano
Jeremy Budd, tenor
Sumner Thompson, baritone
Handel and Haydn Society Chorus
Handel and Haydn Society
Harry Christophers, conductor

Track List:
Symphony No. 100 in G major 'Military'
01. I. Adagio – Allegro
02. II. Allegretto
03. III. Menuet & Trio - Moderato
04. IV. Finale - Presto
Missa in angustiis, Hob. XXII
05. Kyrie
06. Gloria in excelsis deo
07. Qui tollis
08. Quoniam tu solus sanctus
09. Credo in unum Deum
10. Et incarnatus est
11. Et resurrexit
12. Sanctus
13. Benedictus
14. Agnus Dei qui tollis
15. Dona nobis pacem


Exact Audio Copy V1.3 from 2. September 2016

EAC extraction logfile from 4. March 2021, 17:54

Harry Christophers, Handel and Haydn Society / Haydn - Symphony No.100; Nelson Mass

Used drive : HL-DT-STDVDRAM GH24NS95 Adapter: 1 ID: 0

Read mode : Secure
Utilize accurate stream : Yes
Defeat audio cache : Yes
Make use of C2 pointers : No

Read offset correction : 6
Overread into Lead-In and Lead-Out : No
Fill up missing offset samples with silence : Yes
Delete leading and trailing silent blocks : No
Null samples used in CRC calculations : Yes
Used interface : Native Win32 interface for Win NT & 2000

Used output format : User Defined Encoder
Selected bitrate : 768 kBit/s
Quality : High
Add ID3 tag : No
Command line compressor : C:\Program Files\Exact Audio Copy\FLAC\FLAC.EXE
Additional command line options : -6 -V -T "ARTIST=%artist%" -T "TITLE=%title%" -T "ALBUM=%albumtitle%" -T "DATE=%year%" -T "TRACKNUMBER=%tracknr%" -T "GENRE=%genre%" -T "COMMENT=%comment%" -T "BAND=%albuminterpret%" -T "ALBUMARTIST=%albuminterpret%" -T "COMPOSER=%composer%" %haslyrics%–tag-from-file=LYRICS="%lyricsfile%"%haslyrics% -T "DISCNUMBER=%cdnumber%" -T "TOTALDISCS=%totalcds%" -T "TOTALTRACKS=%numtracks%" %hascover%–picture="%coverfile%"%hascover% %source% -o %dest%


TOC of the extracted CD

Track | Start | Length | Start sector | End sector
––––––––––––––––––––––––––––-
1 | 0:00.00 | 8:01.68 | 0 | 36142
2 | 8:01.68 | 5:25.04 | 36143 | 60521
3 | 13:26.72 | 5:44.44 | 60522 | 86365
4 | 19:11.41 | 5:35.37 | 86366 | 111527
5 | 24:47.03 | 4:57.16 | 111528 | 133818
6 | 29:44.19 | 3:46.34 | 133819 | 150802
7 | 33:30.53 | 4:14.56 | 150803 | 169908
8 | 37:45.34 | 3:00.31 | 169909 | 183439
9 | 40:45.65 | 1:37.12 | 183440 | 190726
10 | 42:23.02 | 4:09.25 | 190727 | 209426
11 | 46:32.27 | 3:55.30 | 209427 | 227081
12 | 50:27.57 | 2:19.72 | 227082 | 237578
13 | 52:47.54 | 6:18.63 | 237579 | 265991
14 | 59:06.42 | 2:47.47 | 265992 | 278563
15 | 61:54.14 | 2:50.65 | 278564 | 291378


Range status and errors

Selected range

Filename C:\Program Files\Exact Audio Copy\Harry Christophers - Haydn - Symphony No.100; Nelson Mass.wav

Peak level 96.8 %
Extraction speed 2.0 X
Range quality 99.9 %
Test CRC 04DC0724
Copy CRC 04DC0724
Copy OK

No errors occurred

End of status report

Harry Christophers, Handel and Haydn Society - Haydn: Symphony No. 100; Nelson Mass (2020)

Thanks to the original releaser