Subcategories

Hawkwind - Live Seventy Nine (1980) [UK 1st Press, 1992]

Posted By: Andi_Deris
Hawkwind - Live Seventy Nine (1980) [UK 1st Press, 1992]

Hawkwind - Live Seventy Nine (1980) [UK 1st Press, 1992]
EAC Rip | FLAC: Tracks+Cue+Log | 315 Mb | MP3 CBR 320 kbps | 132 Mb | Scans | Time: 45:14
Castle Classics | CLACD 243
Space Rock, Progressive Rock, Psychedelic Rock

Live Seventy Nine is a 1980 live album by Hawkwind recorded on their Winter 1979 tour. It reached #15 on the UK album chart.

This is a reconstituted Hawkwind with Brock, Bainbridge and King emerging from the dissolved Hawklords, joined by lead guitarist Huw Lloyd-Langton who had played on the debut album Hawkwind and keyboardist Tim Blake who was a long-standing friend of the band and had played on Gong's Radio Gnome trilogy. This band embarked upon a UK Winter 1979 tour despite not having a record deal nor any product to promote, recording one of the shows.

Hawkwind - Live Seventy Nine (1980) [UK 1st Press, 1992]




Track Listing

01. Shot Down In The Night (07:39)
02. Motorway City (08:10)
03. Spirit Of The Age (08:20)
04. Brainstorm (08:41)
05. Lighthouse (06:26)
06. Master Of The Universe (04:34)
07. Silver Machine (Requiem) (01:24)

Produced by Hawkwind & Ashley Howe

The Band

Dave Brock: lead vocals, guitar, synthesiser
• Simon King: drums
• Harvey Bainbridge: bass, backing vocals
• Huw Lloyd Langton: lead guitar, backing vocals
Tim Blake: keyboards, synthesiser

Notes

Recorded live during the UK Winter Tour 1979

Exact Audio Copy V0.99 prebeta 5 from 4. May 2009

EAC extraction logfile from 3. March 2010, 22:50

Hawkwind / Live '79 (1992 Castle CLACD 243)

Used drive : HL-DT-STDVD-RAM GSA-H55N Adapter: 1 ID: 0

Read mode : Secure
Utilize accurate stream : Yes
Defeat audio cache : Yes
Make use of C2 pointers : No

Read offset correction : 102
Overread into Lead-In and Lead-Out : No
Fill up missing offset samples with silence : Yes
Delete leading and trailing silent blocks : No
Null samples used in CRC calculations : Yes
Used interface : Installed external ASPI interface
Gap handling : Appended to previous track

Used output format : User Defined Encoder
Selected bitrate : 768 kBit/s
Quality : High
Add ID3 tag : No
Command line compressor : C:\Program Files\Exact Audio Copy\FLAC\FLAC.EXE
Additional command line options : -V -8 -T "artist=%a" -T "title=%t" -T "album=%g" -T "date=%y" -T "tracknumber=%n" -T "genre=%m" %s


TOC of the extracted CD

Track | Start | Length | Start sector | End sector
––––––––––––––––––––––––––––-
1 | 0:00.32 | 7:39.10 | 32 | 34466
2 | 7:39.42 | 8:09.45 | 34467 | 71186
3 | 15:49.12 | 8:20.23 | 71187 | 108709
4 | 24:09.35 | 8:41.25 | 108710 | 147809
5 | 32:50.60 | 6:25.42 | 147810 | 176726
6 | 39:16.27 | 4:33.48 | 176727 | 197249
7 | 43:50.00 | 1:23.50 | 197250 | 203524


Track 1

Filename H:\EAC Rips\Hawkwind\01 - Shot down in the Night.wav

Pre-gap length 0:00:02.42

Peak level 94.6 %
Track quality 99.9 %
Test CRC F291BCA9
Copy CRC F291BCA9
Cannot be verified as accurate (confidence 9) [27E8B111], AccurateRip returned [E28710E5]
Copy OK

Track 2

Filename H:\EAC Rips\Hawkwind\02 - Motorway City.wav

Peak level 97.2 %
Track quality 100.0 %
Test CRC 8486DA64
Copy CRC 8486DA64
Cannot be verified as accurate (confidence 9) [A6C4AFC6], AccurateRip returned [09771E52]
Copy OK

Track 3

Filename H:\EAC Rips\Hawkwind\03 - Spirit of the Age.wav

Peak level 83.2 %
Track quality 100.0 %
Test CRC B3210898
Copy CRC B3210898
Cannot be verified as accurate (confidence 9) [5F48FA45], AccurateRip returned [BF073FD4]
Copy OK

Track 4

Filename H:\EAC Rips\Hawkwind\04 - Brainstorm.wav

Peak level 79.3 %
Track quality 99.9 %
Test CRC 9575F1D6
Copy CRC 9575F1D6
Cannot be verified as accurate (confidence 9) [8FC9C385], AccurateRip returned [979BEA75]
Copy OK

Track 5

Filename H:\EAC Rips\Hawkwind\05 - Lighthouse.wav

Peak level 76.3 %
Track quality 100.0 %
Test CRC 8FA30906
Copy CRC 8FA30906
Cannot be verified as accurate (confidence 9) [256D69A6], AccurateRip returned [F4BC2E36]
Copy OK

Track 6

Filename H:\EAC Rips\Hawkwind\06 - Master of the Universe.wav

Peak level 87.2 %
Track quality 100.0 %
Test CRC 307FAF82
Copy CRC 307FAF82
Cannot be verified as accurate (confidence 8) [7E9FD611], AccurateRip returned [DA7AA82F]
Copy OK

Track 7

Filename H:\EAC Rips\Hawkwind\07 - Silver Machine (Requiem).wav

Peak level 79.8 %
Track quality 100.0 %
Test CRC C58C095D
Copy CRC C58C095D
Cannot be verified as accurate (confidence 9) [2CCF4755], AccurateRip returned [602B1D92]
Copy OK


No tracks could be verified as accurate
You may have a different pressing from the one(s) in the database

No errors occurred

End of status report


Many thanks to the original uploader: lizard king