Subcategories

Antonio Meneses, Víctor Pablo Pérez - Heitor Villa-Lobos: Cello Concertos Nos. 1 & 2; Fantasia for Cello and Orchestra (1999)

Posted By: Designol
Antonio Meneses, Víctor Pablo Pérez - Heitor Villa-Lobos: Cello Concertos Nos. 1 & 2; Fantasia for Cello and Orchestra (1999)

Heitor Villa-Lobos: Cello Concertos Nos. 1 & 2; Fantasia for Cello and Orchestra (1999)
Antonio Meneses, cello; Orquesta Sinfónica de Galicia; Víctor Pablo Pérez, conductor

EAC | FLAC | Tracks (Cue&Log) ~ 277 Mb | Mp3 (CBR320) ~ 148 Mb | Scans ~ 40 Mb
Genre: Classical | Label: Auvidis-Valois | # V 4843 | Time: 01:04:12

These three magnificent works belong in the repertoire of cellists everywhere. They are full of Villa-Lobos’ signature exotic instrumental textures, folk-like melodies, and abundant invention. They are also harder than hell to play, and difficult to balance. Villa-Lobos was a cellist himself, and loved the instrument’s low, dark register. Penetrating his dense orchestration without making the instrument sound like a dying cow is just one of the many challenges facing cellists attempting to come to grips with this marvelously expressive music, though recordings can solve this problem with sensitive microphone placement. Antonio Meneses understands both the music and its performance problems, and his lower register manages to sound gruff without undue signs of bovine distress. He’s helped by some very sensitive accompaniments; Pérez projects the music’s lush timbres without laying it on too thick. There’s very little competition in this music (principally the Second Concerto on Dorian, and the two numbered concertos on MDG), and I have no hesitation in recommending this disc to anyone who loves Villa-Lobos, the cello, or both.

Review by David Hurwitz, ClassicsToday.com
Artistic Quality: 9 / Sound Quality: 9

Antonio Meneses, Víctor Pablo Pérez - Heitor Villa-Lobos: Cello Concertos Nos. 1 & 2; Fantasia for Cello and Orchestra (1999)



Antonio Meneses, Víctor Pablo Pérez - Heitor Villa-Lobos: Cello Concertos Nos. 1 & 2; Fantasia for Cello and Orchestra (1999)



Antonio Meneses, cello
Orquesta Sinfónica de Galicia
Víctor Pablo Pérez, conductor

Tracklist:

Concierto Para Violonchelo Y Orquesta No.1
(Cello Concerto No.1, A.095)
01. I. Allegro con brio (7:20)
02. II. Assai moderato (6:49)
03. III. Allegro moderato (6:01)

Concierto Para Violonchelo Y Orquesta No.2
Cello Concerto No.2, A.516)
04. I. Allegro non troppo (8:47)
05. II. Molto andante cantabile (6:35)
06. III. Scherzo (4:46)
07. IV. Allegro energico (3:31)

Fantasía Para Chelo Y Orquesta
(Fantasia, for Cello & Orchestra, A. 454)
08. I. Largo (8:22)
09. II. Molto vivace (5:05)
10. III. Allegro espressivo (6:56)


Exact Audio Copy V1.3 from 2. September 2016

EAC extraction logfile from 19. August 2017, 20:21

Villa-Lobos, Heitor / Works for Cello and Orchestra - Antonio Meneses

Used drive : PLEXTOR CD-R PREMIUM2 Adapter: 5 ID: 1

Read mode : Secure
Utilize accurate stream : Yes
Defeat audio cache : Yes
Make use of C2 pointers : No

Read offset correction : 30
Overread into Lead-In and Lead-Out : Yes
Fill up missing offset samples with silence : Yes
Delete leading and trailing silent blocks : No
Null samples used in CRC calculations : Yes
Used interface : Installed external ASPI interface
Gap handling : Appended to previous track

Used output format : User Defined Encoder
Selected bitrate : 896 kBit/s
Quality : High
Add ID3 tag : No
Command line compressor : C:\Program Files\Exact Audio Copy\Flac\flac.exe
Additional command line options : -6 -V -T "ARTIST=%artist%" -T "TITLE=%title%" -T "ALBUM=%albumtitle%" -T "DATE=%year%" -T "PERFORMER=%albuminterpret%" -T "TRACKNUMBER=%tracknr%" -T "TOTALTRACKS=%numtracks%" -T "GENRE=%genre%" -T "COMPOSER=%composer%" -T "ALBUMARTIST=%albumartist%" -T "ALBUM ARTIST=%albumartist%" -T "COMMENT=EAC V1.3, Secure Mode, Test & Copy, AccurateRip, FLAC 1.3.2 Level 6" %source%


TOC of the extracted CD

Track | Start | Length | Start sector | End sector
––––––––––––––––––––––––––––-
1 | 0:00.15 | 7:20.25 | 15 | 33039
2 | 7:20.40 | 6:49.25 | 33040 | 63739
3 | 14:09.65 | 6:01.33 | 63740 | 90847
4 | 20:11.23 | 8:46.41 | 90848 | 130338
5 | 28:57.64 | 6:35.04 | 130339 | 159967
6 | 35:32.68 | 4:45.47 | 159968 | 181389
7 | 40:18.40 | 3:30.40 | 181390 | 197179
8 | 43:49.05 | 8:22.18 | 197180 | 234847
9 | 52:11.23 | 5:04.50 | 234848 | 257697
10 | 57:15.73 | 6:56.37 | 257698 | 288934


Track 1

Filename D:\EAC extraction\01 - Concerto No.1 - I. Allegro con brio.wav

Pre-gap length 0:00:02.15

Peak level 72.8 %
Extraction speed 1.9 X
Track quality 100.0 %
Test CRC 1BFEFCDC
Copy CRC 1BFEFCDC
Accurately ripped (confidence 2) [5B770155] (AR v2)
Copy OK

Track 2

Filename D:\EAC extraction\02 - Concerto No.1 - II. Assai moderato.wav

Pre-gap length 0:00:00.25

Peak level 74.4 %
Extraction speed 1.8 X
Track quality 99.9 %
Test CRC 76CF8A6A
Copy CRC 76CF8A6A
Accurately ripped (confidence 2) [3CDDDEE8] (AR v2)
Copy OK

Track 3

Filename D:\EAC extraction\03 - Concerto No.1 - III. Allegro moderato.wav

Pre-gap length 0:00:00.25

Peak level 78.7 %
Extraction speed 1.9 X
Track quality 100.0 %
Test CRC 40FEEB56
Copy CRC 40FEEB56
Accurately ripped (confidence 2) [8CC109A0] (AR v2)
Copy OK

Track 4

Filename D:\EAC extraction\04 - Concerto No.2 - I. Allegro non troppo.wav

Pre-gap length 0:00:12.48

Peak level 98.8 %
Extraction speed 1.9 X
Track quality 99.9 %
Test CRC DBB7EFBB
Copy CRC DBB7EFBB
Accurately ripped (confidence 2) [3959FA89] (AR v2)
Copy OK

Track 5

Filename D:\EAC extraction\05 - Concerto No.2 - II. Molto andante cantabile.wav

Pre-gap length 0:00:03.41

Peak level 50.7 %
Extraction speed 1.8 X
Track quality 99.9 %
Test CRC 90D64739
Copy CRC 90D64739
Accurately ripped (confidence 2) [80BE53C3] (AR v2)
Copy OK

Track 6

Filename D:\EAC extraction\06 - Concerto No.2 - III. Scherzo.wav

Pre-gap length 0:00:02.35

Peak level 78.7 %
Extraction speed 1.9 X
Track quality 100.0 %
Test CRC 6AA316B6
Copy CRC 6AA316B6
Accurately ripped (confidence 2) [4DEE2029] (AR v2)
Copy OK

Track 7

Filename D:\EAC extraction\07 - Concerto No.2 - IV. Allegro energico.wav

Pre-gap length 0:00:00.25

Peak level 88.6 %
Extraction speed 1.8 X
Track quality 100.0 %
Test CRC 0B3DAF78
Copy CRC 0B3DAF78
Accurately ripped (confidence 2) [B08ED0D8] (AR v2)
Copy OK

Track 8

Filename D:\EAC extraction\08 - Fantasy - I. Largo.wav

Pre-gap length 0:00:08.30

Peak level 50.1 %
Extraction speed 1.9 X
Track quality 100.0 %
Test CRC 5E853AD7
Copy CRC 5E853AD7
Accurately ripped (confidence 2) [46BEFA00] (AR v2)
Copy OK

Track 9

Filename D:\EAC extraction\09 - Fantasy - II. Molto vivace.wav

Pre-gap length 0:00:02.45

Peak level 38.6 %
Extraction speed 1.9 X
Track quality 100.0 %
Test CRC 2EBAA07A
Copy CRC 2EBAA07A
Accurately ripped (confidence 2) [02D601AD] (AR v2)
Copy OK

Track 10

Filename D:\EAC extraction\10 - Fantasy - III. Allegro espressivo.wav

Pre-gap length 0:00:03.19

Peak level 60.2 %
Extraction speed 1.9 X
Track quality 100.0 %
Test CRC 643B6AF9
Copy CRC 643B6AF9
Accurately ripped (confidence 2) [1D2166F3] (AR v2)
Copy OK


All tracks accurately ripped

No errors occurred

End of status report

–– CUETools DB Plugin V2.1.6

[CTDB TOCID: 9.LgHFsJOesXDe_iD0xsvPvFC6I-] found
Submit result: 9.LgHFsJOesXDe_iD0xsvPvFC6I- has been confirmed
Track | CTDB Status
1 | (2/2) Accurately ripped
2 | (2/2) Accurately ripped
3 | (1/2) Accurately ripped
4 | (1/2) Accurately ripped
5 | (1/2) Accurately ripped
6 | (1/2) Accurately ripped
7 | (1/2) Accurately ripped
8 | (1/2) Accurately ripped
9 | (1/2) Accurately ripped
10 | (1/2) Accurately ripped


==== Log checksum 2D72398C14AAB20CC25E7E636ED2C743797AC8D2318E021D424222BEAA17D38B ====

foobar2000 1.2 / Dynamic Range Meter 1.1.1
log date: 2017-09-20 17:52:37

––––––––––––––––––––––––––––––––––––––––
Analyzed: Villa-Lobos, Heitor / Works for Cello and Orchestra - Antonio Meneses (cello), Orquesta Sinfónica de Galicia, Víctor Pablo Pérez
––––––––––––––––––––––––––––––––––––––––

DR Peak RMS Duration Track
––––––––––––––––––––––––––––––––––––––––
DR14 -2.75 dB -22.37 dB 7:20 01-Concerto No.1 - I. Allegro con brio
DR14 -2.56 dB -24.13 dB 6:49 02-Concerto No.1 - II. Assai moderato
DR14 -2.08 dB -22.56 dB 6:01 03-Concerto No.1 - III. Allegro moderato
DR15 -0.10 dB -22.71 dB 8:47 04-Concerto No.2 - I. Allegro non troppo
DR15 -5.90 dB -26.21 dB 6:35 05-Concerto No.2 - II. Molto andante cantabile
DR14 -2.08 dB -22.77 dB 4:46 06-Concerto No.2 - III. Scherzo
DR15 -1.05 dB -22.40 dB 3:31 07-Concerto No.2 - IV. Allegro energico
DR15 -5.99 dB -25.97 dB 8:22 08-Fantasy - I. Largo
DR15 -8.25 dB -27.01 dB 5:05 09-Fantasy - II. Molto vivace
DR13 -4.40 dB -26.74 dB 6:56 10-Fantasy - III. Allegro espressivo
––––––––––––––––––––––––––––––––––––––––

Number of tracks: 10
Official DR value: DR14

Samplerate: 44100 Hz
Channels: 2
Bits per sample: 16
Bitrate: 607 kbps
Codec: FLAC
================================================================================

Antonio Meneses, Víctor Pablo Pérez - Heitor Villa-Lobos: Cello Concertos Nos. 1 & 2; Fantasia for Cello and Orchestra (1999)

Antonio Meneses, Víctor Pablo Pérez - Heitor Villa-Lobos: Cello Concertos Nos. 1 & 2; Fantasia for Cello and Orchestra (1999)

All thanks to original releaser - quivive

More interesting music in My Blog